<?xml version="1.0" standalone="no"?>
<!DOCTYPE svg PUBLIC "-//W3C//DTD SVG 1.1//EN" "http://www.w3.org/Graphics/SVG/1.1/DTD/svg11.dtd" >
<svg xmlns="http://www.w3.org/2000/svg" xmlns:xlink="http://www.w3.org/1999/xlink" version="1.1">
<metadata></metadata>
<defs>
<font id="sociconregular" horiz-adv-x="1024" >
<font-face units-per-em="1024" ascent="960" descent="-64" />
<missing-glyph horiz-adv-x="512" />
<glyph horiz-adv-x="0" d="M0 0v0v0v0z" />
<glyph horiz-adv-x="0" d="M0 0v0v0v0z" />
<glyph horiz-adv-x="0" d="M0 0v0v0v0z" />
<glyph unicode=" " horiz-adv-x="512" d="M0 0v0v0v0z" />
<glyph unicode="!" d="M1022 371q-2 31 -4.5 61t-11.5 60q-8 29 -20.5 56t-29.5 52q-16 23 -35 44.5t-45 34.5q-23 12 -49 15.5t-52 0.5q-63 -8 -113 -46.5t-89 -84.5q-22 -26 -42 -52.5t-39 -53.5l-10 -16t-10 -17q-4 -6 -8 -14t-10 -13q-11 -10 -16.5 13t-7.5 29q-18 67 -37 134.5t-49 130.5 q-11 24 -25.5 49t-34.5 45q-21 21 -46.5 25.5t-54.5 4.5q-15 -3 -27.5 -6t-23.5 -14q-11 -10 -23 -20.5t-23 -21.5t-21 -22.5t-23 -19.5q-11 -6 -22 -8.5t-17 -13.5q-6 -13 -1 -28.5t5 -29.5q0 -17 1.5 -42l1.5 -25v-27.5v-45.5v-18v-18v-19.5v-11.5v-285l-1 -22.5t6 -34.5 q7 -10 18.5 -11t22.5 -1q21 -1 43 2t26 29q2 16 1.5 32.5t0.5 33.5v37t-1 37q0 72 -5.5 145t6.5 144q4 21 17.5 55.5t43.5 26.5q26 -6 44.5 -34.5t27.5 -51.5q25 -66 41 -135.5t30 -138.5q4 -18 7.5 -35.5t8.5 -34.5q4 -11 8.5 -22.5t15.5 -17.5q24 -13 52.5 -2.5t47.5 24.5 q25 20 42.5 45t31.5 53q16 32 31 64l30 64q13 28 26 55.5t38 46.5q20 16 48 24.5t54 6.5q70 -5 92 -76.5t24 -126.5q1 -36 -1.5 -72t-4.5 -72q-1 -18 -1.5 -36t-0.5 -36v-16.5t5 -16.5q9 -15 32 -13.5t37 3.5q20 2 29.5 11.5t15.5 27.5q11 32 16 64t7 66l2 64t-2 63v0z" />
<glyph unicode="&#x22;" d="M936 149q-5 0 -9.5 1.5t-9.5 4.5q-11 7 -14 21t5 26q23 35 35.5 75.5t12.5 83.5q0 42 -12.5 82.5t-35.5 76.5q-8 11 -5.5 25t14.5 22t26 5t21 -15q30 -43 45 -93t15 -103t-15 -103t-45 -94q-4 -7 -12 -11t-16 -4v0v0zM839 204q-5 0 -10 1.5t-9 4.5q-12 8 -14.5 22t5.5 25 q15 23 23 49.5t8 54.5q0 27 -8 53.5t-23 49.5q-8 12 -5.5 26t14.5 21q11 8 25 5.5t22 -14.5q21 -31 32 -67t11 -74t-11 -74t-32 -68q-5 -7 -12.5 -11t-15.5 -4v0v0zM680 509q-6 51 -28.5 95.5t-58.5 77.5t-83 51.5t-99 18.5q-44 0 -84 -13t-73.5 -37.5t-59 -58t-39.5 -74.5 q-66 -9 -110.5 -60t-44.5 -119q0 -75 53.5 -128t128.5 -53h465q63 0 107.5 44.5t44.5 107.5q0 54 -34 95.5t-85 52.5v0zM647 277h-465q-47 0 -80.5 33t-33.5 80t33.5 80t80.5 33q22 0 43 -8.5t37 -24.5q10 -10 24 -10t24 10t10 24t-10 24q-17 18 -38.5 30t-44.5 18 q24 53 74 85.5t110 32.5q41 0 78 -16t64.5 -43t43.5 -64t16 -79q0 -16 -2.5 -32t-7.5 -31q-5 -13 1.5 -25.5t19.5 -17.5q3 -1 5.5 -1.5t5.5 -0.5q11 0 20 6.5t12 17.5q4 10 6.5 20t3.5 21q24 -9 39 -30.5t15 -47.5q0 -35 -24.5 -59.5t-59.5 -24.5v0z" />
<glyph unicode="#" d="M735 772q-1 0 -1.5 0.5t-1.5 0.5q-33 21 -66 34.5t-66 32.5q-4 2 -8 4.5t-8 5.5q-23 15 -52.5 47.5t-55.5 64.5v0v0h-0.5h-0.5q-1 -16 -3.5 -29t-5.5 -23q-7 -22 -16.5 -36t-20.5 -24q-1 -1 -2.5 -1.5t-2.5 -1.5q-38 -30 -65.5 -43.5t-59.5 -31.5q-3 -2 -7 -4t-9 -5 q-19 -12 -51 -36.5t-64 -62.5q-41 -48 -72.5 -118t-31.5 -166q0 -61 15.5 -116t43.5 -103q31 -51 74 -92.5t94 -70.5q1 0 1 -0.5t1 -0.5l1.5 -1.5t1.5 -0.5q1 -1 2 -1t1 -1q1 0 2 -0.5l3 -1.5l1 -0.5t2 -1.5q1 0 1.5 -0.5l0.5 -0.5l3 -1.5t2 -0.5l1 -1v0q46 -22 97 -34 t104 -12q89 0 169.5 31t141.5 87.5t97 136.5t36 178t-31 170t-70 120.5t-75.5 75t-48.5 34.5v0zM741 31q-4 -3 -34 -20t-70 -21t-88 -1t-80 32q-6 6 -5 12t5 9q3 3 6.5 5t7.5 2h5.5t2.5 -2q15 -12 40 -20t73 -8q47 0 79.5 10.5t47.5 21.5q6 5 9.5 2.5t4.5 -5.5q0 -3 0.5 -7 t-4.5 -10v0zM568 121q8 7 20.5 17t24.5 16q13 5 21.5 5.5t20.5 0.5t23.5 -1.5t20.5 -7.5t14.5 -17t8.5 -19q3 -7 0.5 -12t-8.5 -8q-5 -3 -7.5 -0.5t-7.5 11.5q-5 10 -13 18t-34 8t-38 -7.5t-24 -18.5q-13 -10 -18.5 -13t-10.5 2q-4 6 -2.5 12.5t9.5 13.5v0zM829 113 q-26 2 -71.5 58t-79.5 58q-22 0 -54.5 -18.5t-70.5 -41t-78 -41.5t-77 -19q-44 0 -62.5 6t-33.5 16q-22 15 -33 39t-11 57q1 57 48.5 103t115.5 46q43 1 80 -17t68.5 -39.5t57.5 -39t48 -17.5q37 1 96 49.5t94 48.5q37 0 50 -29.5t13 -52.5t-8 -59t-26 -61 q-17 -26 -31 -36.5t-35 -9.5v0z" />
<glyph unicode="$" d="M382 324q-31 -48 -54.5 -94t-38.5 -81q-1 -2 -9.5 -22.5t-11.5 -29.5q-4 -11 1 -22t16 -15q8 -3 29 -10.5t23 -8.5q36 -12 85 -25.5t105 -22.5q-33 32 -59.5 69.5t-45.5 79.5q-19 43 -29 89t-11 93v0zM528 589v0v0q-1 2 -3.5 8t-3.5 8q-54 110 -134.5 166.5t-158.5 69.5 t-141 -10.5t-82 -73.5q-14 -38 10.5 -93.5t89.5 -93.5t170.5 -42t252.5 61v0zM593 616v0v0q83 37 122 84t48.5 90.5t-3.5 76t-34 40.5q-29 11 -65.5 -3.5t-62.5 -52t-32.5 -95t23.5 -131.5q0 -1 1.5 -4.5t2.5 -4.5v0zM999 400q-25 57 -69 96.5t-97 58.5q-6 2 -11.5 3 t-10.5 1q-28 0 -51 -20.5t-25 -49.5q-5 -48 4.5 -96.5t30.5 -95.5t50 -86t67 -68q10 -7 21.5 -11t23.5 -4q22 0 41.5 11.5t28.5 31.5q22 53 22 112.5t-25 116.5v0zM686 259q-27 60 -37.5 119.5t-5.5 118.5q1 17 6 32.5t12 30.5q-1 0 -3 -1l-2 -1q-25 -6 -48 -16t-44 -24 q-31 -20 -56 -49t-36 -64q-3 -10 -5.5 -20t-2.5 -20q-4 -47 4 -95.5t29 -94.5q20 -45 49 -82t65 -66q22 -17 57.5 -27.5t67.5 -10.5q30 0 60 8.5t56 21.5q9 5 23 13.5t15 9.5q-16 4 -31 11t-28 17q-46 36 -82.5 83t-62.5 106v0z" />
<glyph unicode="%" d="M60 643h185v-686h-185v686v0zM422 221q42 -48 103.5 -78.5t129.5 -30.5q65 0 104 35t39 89q0 48 -31 77.5t-78 52t-102.5 42.5t-104.5 50q-59 34 -99 87.5t-40 138.5q0 66 27.5 118t73.5 87.5t105 54.5t121 19q76 0 146 -20.5t140 -74.5l-98 -143q-31 29 -76 46.5 t-93 17.5q-54 0 -104 -25t-50 -84t71 -89t156.5 -67t156.5 -99.5t71 -188.5q0 -66 -27.5 -121t-73.5 -94t-107 -60.5t-127 -21.5q-49 0 -97 10t-93 29t-87 46t-81 61l125 136v0zM34 842q0 51 35 86t85 35q51 0 86 -35t35 -86t-35 -85.5t-86 -34.5q-50 0 -85 34.5t-35 85.5v0 z" />
<glyph unicode="&#x26;" d="M498 847q-20 6 -37.5 -2.5t-24.5 -27.5l-0.5 -2t-0.5 -3v-2v-1v0q-7 -15 -32.5 -82.5t-54 -142.5t-51 -135l-22.5 -60h-2l-169 429v0.5v0.5l-2 6q-9 19 -28 27t-38 0q-20 -7 -29 -26t-3 -39q8 -20 42.5 -104.5t73 -178t69.5 -168.5l31 -75l-13 -28q-16 -43 -39 -70 t-71 -27q-5 0 -16.5 0.5t-12.5 1.5q-16 0 -29 -9t-17 -25q-5 -18 4 -34t27 -21q13 -2 26 -3t24 -1q89 0 128.5 46.5t68.5 121.5l34 84.5t75 187.5t77 191.5t39 96.5q1 3 2 5.5t2 4.5v0l0.5 0.5t0.5 1.5q6 19 -3.5 37.5t-28.5 24.5v0zM887 220q-31 17 -71 37t-80 37t-74 28.5 t-53 11.5q-6 0 -10.5 -1t-7.5 -4q-3 -2 -5 -5t-1 -7q0 -15 35.5 -46.5t78.5 -64t81.5 -58.5t45.5 -30l8 -4q4 -1 8.5 -1.5t8.5 -0.5q16 0 29 7t22 20q12 20 8.5 43t-23.5 38v0zM591 572q3 -2 7.5 -3.5t10.5 -1.5q19 0 53.5 11.5t74 28.5t80 37.5t72.5 37.5q18 15 21.5 37.5 t-8.5 42.5q-9 13 -22 20.5t-29 7.5q-4 0 -8.5 -1t-9.5 -2l-7 -4q-7 -4 -45.5 -30t-81.5 -58.5t-78.5 -64t-35.5 -46.5q-1 -3 1 -6.5t5 -5.5v0zM977 512h-7q-9 0 -55 -4t-99.5 -12t-99.5 -18.5t-54 -23.5q-2 -3 -2 -8t1 -8q9 -17 58.5 -27t105.5 -14.5t102.5 -5.5t48.5 1v0v0 q23 4 37 22.5t12 41.5q-1 20 -14.5 36t-33.5 20v0z" />
<glyph unicode="'" d="M512 963q-106 0 -199.5 -40.5t-163 -110t-109.5 -162.5t-40 -199t40 -199.5t109.5 -163t163 -109.5t199.5 -40t199.5 40t163 109.5t109.5 163t40 199.5t-40 199t-109.5 162.5t-163 110t-199.5 40.5v0zM809 374q-13 -51 -41.5 -93.5t-67.5 -73t-87.5 -47.5t-100.5 -17 t-100.5 17t-87.5 47.5t-67.5 73t-41.5 93.5q-3 11 3 21.5t18 13.5t22 -3t13 -18q11 -41 34 -75t55 -59t71 -38.5t81 -13.5t81 13.5t71 38.5t55 59t33 75q4 12 14 18t22 3t18 -13.5t3 -21.5v0z" />
<glyph unicode="(" d="M696 20h-511l3 344l-77 1v-426h667v430h-82v-349zM236 164h399v-82h-399v82v0zM246 317l402 -39l-8 -87l-402 38l8 88v0zM283 491l388 -110l-23 -84l-389 109l24 85v0zM377 687l346 -209l-46 -75l-345 209l45 75v0zM738 494l-236 328l72 51l235 -328l-71 -51v0zM760 948 l87 15l66 -399l-86 -14l-67 398v0z" />
<glyph unicode=")" d="M687 843h-650q-15 0 -26 -11t-11 -26v-711q0 -15 11 -26t26 -11h650l337 393l-337 392v0zM413 214q-117 0 -163 3.5l-46 3.5l11.5 65.5t53.5 81.5q43 17 60 20t31 12h1.5t0.5 1v33q-14 13 -25 31t-18 40q-8 8 -12 18t-4 20q0 7 2 14t6 13q2 53 31.5 85t71.5 32 q41 0 70.5 -32t32.5 -85q4 -6 6 -13t2 -14q0 -10 -4.5 -20t-12.5 -18q-6 -22 -17 -40t-26 -31v-33l1 -1h1q15 -9 31.5 -12t59.5 -20q43 -16 54 -81.5l11 -65.5l-46 -3.5t-164 -3.5v0z" />
<glyph unicode="*" d="M366 877q20 -45 40 -90.5t39 -90.5q2 -4 7 -16.5t12 -9.5q15 6 15 8.5t-5 17.5q-7 22 -15.5 43.5t-15.5 43.5q-11 33 -25 65.5t-25 65.5q-3 10 -12.5 32.5t-25.5 13.5q-23 -14 -10 -40t21 -43q3 -7 0 -0.5t0 0.5v0zM715 572q-16 0 -21 -18t8 -28q4 -2 8.5 -4t6.5 -2 q7 0 15.5 9.5t8.5 18.5q0 5 8.5 16t28.5 32q15 16 41 43t48 50t49.5 51.5t43.5 45.5q39 41 45 49.5t1 17.5q-2 4 -6.5 8t-8.5 5h-3h-3q-6 0 -16 -10.5t-37 -42.5q-8 -10 -18 -21.5t-16 -18.5q-6 -6 -17 -19t-21 -25q-10 -11 -23 -26t-22 -25q-26 -30 -42.5 -49.5 t-30.5 -35.5q-9 -11 -15.5 -16t-11.5 -5v0zM712 377q42 18 86 49t60 54q4 5 8.5 10.5t5.5 7.5q14 15 20.5 45t1.5 52q-3 13 -14.5 31t-17.5 18q-4 0 -30.5 -28.5t-28.5 -34.5q-3 -12 4.5 -16.5t29.5 -4.5q23 0 22 -3t-27 -13q-32 -12 -39 -25t5 -38q3 -8 5 -13.5l2 -5.5 q-1 -1 -7 0.5t-14 4.5q-18 5 -28 5t-20 -4q-9 -4 -20 -23.5t-11 -30.5q0 -4 -1 -7t-3 -4q-3 -2 -7.5 7.5t-4.5 19.5q0 4 -4 11t-9 14q-10 11 -15.5 13t-24.5 2q-10 0 -22 -1t-19 -2l-16 -3l23 24q16 16 19.5 22.5t3.5 18.5q0 14 -7 26t-23 26l-12 11l16 -3q42 -8 62 5.5 t26 52.5q1 7 2.5 12t3.5 5q1 0 4 -6l7 -14q9 -19 16.5 -23.5t19.5 4.5q9 6 28 27t21 27q2 7 -30 11t-74 4q-33 0 -65 -2.5t-53 -7.5q-46 -11 -60.5 -16.5t-11.5 -11.5q1 -3 3.5 -9.5t4.5 -12.5q7 -20 11.5 -29t7.5 -9q4 0 13.5 -11.5t9.5 -16.5q0 -3 -3 -8t-7 -9 q-9 -10 -21 -10.5t-21 8.5q-6 5 -7.5 9.5t0.5 14.5q1 12 -3 24.5t-19 44.5l-5 9l-28 -14q-66 -33 -107.5 -73.5t-55.5 -86.5q-2 -7 -3.5 -12.5t-0.5 -5.5q1 -1 22.5 -2.5t50.5 -2.5q45 -2 59.5 -1.5t18.5 4.5q9 8 17 9t19 -4q9 -5 12 -11t1 -18q-2 -14 -19 -19t-27 5 q-4 5 -17 5.5t-58 -1.5q-28 -1 -49 -2.5l-21 -1.5q-3 -3 6 -16.5t21 -23.5q22 -20 56.5 -32.5t80.5 -17.5q59 -7 134.5 6.5t140.5 41.5v0zM950 295q-2 16 -5 39t-5 39q-2 15 -4.5 35.5t-3.5 32.5q-1 16 -3 23.5t-4 7.5q-1 0 -2 -3t-2 -10q-2 -15 -15 -78t-15 -68 q-1 -3 -3 -12.5t-4 -21.5q-2 -11 -5 -25.5t-5 -22.5t-5.5 -25.5t-6.5 -34.5q-8 -36 -13 -52.5t-8 -16.5q-1 0 -30.5 28t-69.5 67l-98 96l-7 -15q-2 -7 -5 -16.5t-4 -16.5t-3 -14t-3 -10q-2 -2 -6.5 -17.5t-9.5 -34.5q-5 -18 -10.5 -37.5t-7.5 -27.5q-3 -8 -6.5 -22t-6.5 -25 q-6 -24 -12.5 -26t-20.5 14q-14 15 -42.5 47t-32.5 36q-1 2 -9 10.5t-17 18.5t-17.5 20t-12.5 14q-3 4 -13 15t-21 23t-20 22t-10 12q-2 1 -9 8.5t-14 16.5q-16 17 -18.5 15t7.5 -24q4 -8 8 -18t7 -16q2 -6 5.5 -13.5t5.5 -12.5q4 -8 10 -21.5t18 -41.5q3 -7 6.5 -15 t5.5 -13q4 -8 11 -24.5t15 -35.5q15 -35 23 -48.5t21 -26.5q18 -16 44 -29t55 -19q43 -9 100.5 -5t106.5 20q50 16 84.5 36.5t65.5 51.5q25 25 31.5 33t14.5 25q10 20 12 42t-2 61q-2 19 -5 44.5t-5 41.5v0zM231 454q-7 1 -28 2t-48 1q-45 0 -89 -1.5t-46 -3.5 q-5 -5 -5 -15.5t5 -15.5q3 -3 25.5 -3.5t89.5 0.5q45 1 78 2.5t34 2.5q1 0 0.5 4.5t-1.5 10.5q-2 8 -4.5 11t-10.5 5v0z" />
<glyph unicode="+" d="M512 -59l287 173v337l-287 -173v-337zM512 621v344l-297 -174v-348l294 172l290 -164v340zM508 277l-293 166v-339z" />
<glyph unicode="," d="M274 76q0 -57 -40 -96.5t-96 -39.5t-96 39.5t-40 96.5q0 56 40 96t96 40t96 -40t40 -96v0zM2 418q48 0 94 -9t89 -27t82 -44t72 -60q34 -34 60 -73t44 -82t27 -89.5t9 -94.5h196q0 140 -53 263t-144 214.5t-214 145t-262 53.5v-197v0zM2 766q171 0 321 -65t261.5 -177.5 t176.5 -263t65 -321.5h196q0 211 -80 397.5t-218.5 325.5t-324.5 220t-397 81v-197v0z" />
<glyph unicode="-" d="M635 963h-368q-19 0 -33.5 -12.5t-17.5 -31.5l-149 -945q-2 -14 7 -24.5t23 -10.5h176q19 0 33.5 12t17.5 31l40 255q3 18 17.5 30.5t33.5 12.5h116q91 0 163 22t124.5 66t85.5 109.5t47 152.5q12 77 0.5 136.5t-47.5 101.5q-39 47 -107.5 71t-161.5 24v0zM678 617 q-15 -99 -80.5 -115.5t-138.5 -16.5h-56l39 247q2 11 10.5 18.5t20.5 7.5h25q50 0 94 -5t68 -33q15 -17 19 -42.5t-1 -60.5v0z" />
<glyph unicode="." d="M512 444q54 0 101 20.5t82 55.5t55.5 82.5t20.5 100.5q0 54 -20.5 101t-55.5 82.5t-82 55.5t-101 20t-101 -20t-82 -55.5t-55.5 -82.5t-20.5 -101q0 -53 20.5 -100.5t55.5 -82.5t82 -55.5t101 -20.5v0zM512 831q53 0 90.5 -37.5t37.5 -90.5t-37.5 -90t-90.5 -37t-90.5 37 t-37.5 90t37.5 90.5t90.5 37.5v0zM811 412q-11 22 -40 33t-69 -21q-55 -43 -122.5 -50.5l-67.5 -7.5l-67.5 7.5t-122.5 50.5q-40 32 -69 21t-40 -33q-19 -38 0.5 -62t68.5 -55q41 -27 92.5 -39t88.5 -15l-41 -41l-84 -84l-69 -69q-17 -18 -17 -42.5t17 -41.5l7 -7 q17 -18 42 -18t42 18l153 152l83 -83l69 -69q18 -18 42.5 -18t41.5 18l7 7q18 17 18 41.5t-18 42.5l-194 194q37 4 88 15.5t92 38.5q49 31 68.5 55t0.5 62v0z" />
<glyph unicode="/" d="M975 236q-3 9 -7 18.5t-8 18.5q-6 13 -12 26.5t-12 26.5v1q-27 58 -54.5 116t-56 116t-57.5 116t-58 115l-4 7q-6 11 -12 23.5t-13 24.5q-7 14 -16 28t-20 28q-26 30 -60 46t-72 16t-72 -16t-59 -46q-12 -14 -20.5 -28.5t-16.5 -27.5q-6 -13 -12.5 -25t-12.5 -24l-3 -6 q-30 -57 -59 -115t-57.5 -116t-56 -116t-53.5 -116l-1 -2l-12 -26l-12 -26q-4 -9 -7.5 -18t-7.5 -19q-10 -29 -13 -56t1 -55q8 -57 44 -102.5t89 -67.5q20 -8 41 -12t43 -4h13.5t13.5 1q26 3 52 12t51 23q31 17 62.5 43.5t64.5 62.5q34 -36 65 -62.5t63 -43.5q25 -14 51 -23 t51 -12q7 -1 14 -1h13q22 0 43 4t41 12q54 22 89.5 67.5t44.5 102.5q3 28 0 55t-13 56v0zM513 182q-41 53 -67.5 101.5t-35.5 89.5q-4 17 -5 33t1 30q2 12 6 23t11 20q14 21 38 32.5t52 11.5t52 -11.5t39 -32.5q6 -9 10 -20t6 -23q2 -14 1.5 -30t-4.5 -33q-10 -41 -36 -89.5 t-68 -101.5v0zM923 135q-6 -40 -31 -72t-63 -48q-18 -7 -38 -9.5t-40 -0.5t-39 9t-39 18q-28 16 -56.5 40t-60.5 59q50 63 81.5 120t42.5 107q6 24 7 46t-2 42q-3 19 -10 36.5t-17 33.5q-24 34 -62 53.5t-83 19.5q-44 0 -82.5 -19.5t-61.5 -53.5q-11 -15 -17.5 -33t-9.5 -37 q-4 -20 -2.5 -42t6.5 -45q12 -51 43 -108t81 -120q-31 -35 -59.5 -59t-56.5 -40q-20 -11 -39.5 -18t-39.5 -9t-40 0.5t-38 9.5q-37 16 -62.5 48t-30.5 72q-3 19 -1 38.5t10 40.5q2 8 5.5 15.5t7.5 16.5q6 13 11.5 26t11.5 25l1 3q27 57 54 114.5t55.5 115.5t57 115.5 t58.5 114.5l3 6l12 24t13 24q6 12 13 23.5t16 21.5q16 19 36.5 28.5t44.5 9.5t45 -9.5t37 -28.5q8 -10 15 -21.5t14 -23.5l12 -24t12 -23l3 -7q30 -57 59 -114.5t57 -115.5t55.5 -115.5t53.5 -114.5l1 -2l12 -26t11 -26q4 -9 7.5 -16.5t6.5 -15.5q7 -21 9.5 -40.5 t-0.5 -38.5v0z" />
<glyph unicode="0" d="M804 835q-29 31 -62.5 55t-69.5 40t-75 24.5t-80 8.5q-86 0 -161.5 -34t-132 -92t-89.5 -136.5t-33 -166.5q0 -57 19 -115t45 -110t54.5 -94t47.5 -67q27 -36 60 -73.5t67 -67.5t66 -49t57 -19q31 0 70.5 29.5t75.5 67t63 71t33 41.5q18 25 46 67.5t54.5 94.5t45 110 t18.5 114q0 42 -8 83t-23 79.5t-37 73.5t-51 65v0zM517 -25q-32 0 -95 55.5t-126.5 139.5t-111 182t-47.5 182q0 80 29.5 151.5t81 125t121 84.5t148.5 31q76 0 143 -31t117.5 -84.5t80 -125t29.5 -151.5q0 -84 -47.5 -182t-109.5 -182t-123.5 -139.5t-89.5 -55.5v0z M519 781q-16 0 -31.5 -2t-29.5 -5q24 -10 39 -32t15 -50q0 -36 -26 -62t-64 -26q-37 0 -63 26t-26 62v1v0q-23 -29 -36 -66t-13 -78q0 -44 18 -84t49.5 -70t74.5 -47.5t93 -17.5q44 0 84.5 17.5t70.5 47.5t48 70t18 84q0 49 -18 91.5t-48 73.5t-70.5 49t-84.5 18v0z" />
<glyph unicode="1" d="M639 745v-200l70 -44h4.5h3.5l301 203q0 18 -12.5 29.5t-22.5 11.5h-344v0zM639 470l64 -43q7 -5 13.5 -2.5l6.5 2.5q-4 -3 41.5 27.5t102 68t104 69l47.5 31.5v-368q0 -30 -16 -43.5t-38 -13.5h-325v272v0v0zM309 563q-17 0 -30 -8t-22 -23q-10 -15 -14.5 -35.5 t-4.5 -45.5q0 -26 4.5 -46t14.5 -35q9 -15 22 -22.5t28 -7.5q16 0 29 7.5t22 21.5q9 15 14 35t5 46t-4.5 47t-13.5 36t-21.5 22.5t-28.5 7.5v0zM6 847v-783l596 -125v1024l-596 -116v0zM405 323q-19 -25 -44 -37.5t-55 -12.5t-54 12t-43 36q-18 24 -27.5 55.5t-9.5 70.5 q0 41 9.5 74t28.5 58t44 38t56 13q30 0 54 -12t42 -37q18 -24 27 -56t9 -71q0 -41 -9.5 -73.5t-27.5 -57.5v0z" />
<glyph unicode="2" d="M895 659q53 0 90 37t37 90t-37 90.5t-90 37.5t-90.5 -37.5t-37.5 -90.5t37.5 -90t90.5 -37v0zM895 578q-53 0 -90.5 -37.5t-37.5 -89.5q0 -53 37.5 -90.5t90.5 -37.5t90 37.5t37 90.5q0 52 -37 89.5t-90 37.5v0zM895 242q-53 0 -90.5 -37t-37.5 -90t37.5 -90.5 t90.5 -37.5t90 37.5t37 90.5t-37 90t-90 37v0zM508 914q-53 0 -90 -37.5t-37 -90.5t37 -90t90 -37t90.5 37t37.5 90t-37.5 90.5t-90.5 37.5v0zM508 578q-53 0 -90 -37.5t-37 -89.5q0 -53 37 -90.5t90 -37.5t90.5 37.5t37.5 90.5q0 52 -37.5 89.5t-90.5 37.5v0zM126 914 q-53 0 -90.5 -37.5t-37.5 -90.5t37.5 -90t90.5 -37t90 37t37 90t-37 90.5t-90 37.5v0z" />
<glyph unicode="3" d="M301 407q0 -17 -12.5 -29.5t-29.5 -12.5q-18 0 -30 12.5t-12 29.5t12 29.5t30 12.5q17 0 29.5 -12.5t12.5 -29.5v0zM807 407q0 -17 -12 -29.5t-30 -12.5q-17 0 -29.5 12.5t-12.5 29.5t12.5 29.5t29.5 12.5q18 0 30 -12.5t12 -29.5v0zM259 531q-25 0 -48 -9.5t-40 -26.5 q-18 -18 -27.5 -40.5t-9.5 -47.5t9.5 -47.5t27.5 -40.5q17 -17 40 -26.5t48 -9.5q51 0 87.5 36.5t36.5 87.5t-36.5 87.5t-87.5 36.5v0zM259 321q-18 0 -33.5 6.5t-27.5 18.5q-13 12 -19.5 28t-6.5 33t6.5 33t19.5 28q12 12 27.5 18.5t33.5 6.5q35 0 60.5 -25t25.5 -61 t-25.5 -61t-60.5 -25v0zM765 531q-25 0 -47.5 -9.5t-39.5 -26.5q-18 -18 -27.5 -40.5t-9.5 -47.5t9.5 -47.5t27.5 -40.5q17 -17 39.5 -26.5t47.5 -9.5q52 0 88.5 36.5t36.5 87.5t-36.5 87.5t-88.5 36.5v0zM765 321q-17 0 -32.5 6.5t-28.5 18.5q-12 12 -18.5 28t-6.5 33 t6.5 33t18.5 28q13 12 28.5 18.5t32.5 6.5q36 0 61.5 -25t25.5 -61t-25.5 -61t-61.5 -25v0zM966 571q7 22 18 45.5t27 38.5h-170q-2 0 -4 0.5t-5 1.5q-6 11 -70.5 53.5t-253.5 42.5q-208 0 -267.5 -49l-59.5 -49h-177q17 -15 29 -42t19 -50q-24 -33 -38 -72.5t-14 -83.5 q0 -53 20.5 -100t55.5 -82.5t82 -55.5t101 -20q59 0 110 24.5t87 66.5l59 -82l50 85q36 -43 88 -69t112 -26q54 0 101 20.5t82 56t55.5 82.5t20.5 100q0 47 -15.5 89t-42.5 75v0zM259 199q-43 0 -81 16.5t-66.5 44.5t-44.5 66t-16 81t16 81t44.5 66t66.5 44.5t81 16.5 t80.5 -16.5t66 -44.5t44.5 -66t16 -81t-16 -81t-44.5 -66t-66 -44.5t-80.5 -16.5v0zM262 651l55.5 38t188.5 38h17q133 0 188.5 -38l55.5 -38l-30.5 1.5t-72 -14.5t-84 -58.5t-65.5 -129.5q-24 87 -66.5 129.5t-84 58.5t-72 14.5l-30.5 -1.5v0zM765 199q-43 0 -80.5 16.5 t-66 44.5t-44.5 66t-16 81t16 81t44.5 66t66 44.5t80.5 16.5t81 -16.5t66.5 -44.5t44.5 -66t16 -81t-16 -81t-44.5 -66t-66.5 -44.5t-81 -16.5v0z" />
<glyph unicode="4" d="M512 837l-513 -773h105l117 179h582l117 -179h105l-513 773v0zM288 332l224 338l224 -338h-448v0z" />
<glyph unicode="5" d="M737 942v-102q-38 58 -99.5 89.5t-133.5 31.5t-131 -26.5t-101 -74.5t-65 -116t-23 -150q0 -71 19 -134.5t54 -111.5q42 -55 101 -84t134 -29q76 0 141.5 31t103.5 85v-107q0 -116 -55.5 -172t-174.5 -56q-101 0 -152.5 42t-55.5 123l-1 24h-72l1 -23q2 -58 21.5 -103 t55.5 -76.5t88 -47.5t119 -16q75 0 132.5 19.5t96.5 58.5t59 96t20 131v698h-82v0zM757 594q0 -53 -15 -103.5t-46 -90.5t-79 -64.5t-114 -24.5q-54 0 -98 20t-75 57t-47.5 89.5t-16.5 116.5q0 50 13 102t42.5 94t77 68.5t115.5 26.5q48 0 88.5 -16.5t71.5 -47.5 q40 -41 61.5 -100t21.5 -127v0z" />
<glyph unicode="6" d="M485 377l-363 4q-4 0 -7.5 -0.5t-5.5 -3.5q-3 -2 -5 -6t-5 -7q-6 -6 -13 -10t-15 -7q-15 -4 -31 -0.5t-28 14.5q-10 11 -11.5 25.5t5.5 27.5q12 23 40.5 29t49.5 -11q6 -5 10.5 -11.5t5.5 -15.5q0 -3 1.5 -4t4.5 -1l367 5q5 0 5.5 -0.5t-0.5 -4.5q-1 -5 -1 -9.5t1 -8.5 q0 -4 -1 -4.5t-4 -0.5v0zM662 377q7 20 0 40.5t-25 32.5q-27 18 -62.5 11t-52.5 -35q-10 -16 -11 -34.5t10 -34.5q10 -15 26.5 -22t33.5 -8q-1 0 0 -0.5t5 -0.5l7 1h-2q23 2 43 15t28 35v0zM985 438q-19 2 -34 -7t-20 -27q0 -2 -1.5 -3t-3.5 -1l-238 3q-2 -1 -1.5 -4t0.5 -5 q0 -3 -0.5 -6t-1.5 -6t0 -3.5t3 -0.5l239 4q4 -1 5.5 -6.5t3.5 -8.5q2 -4 5.5 -7.5t7.5 -6.5q7 -6 16 -8.5t19 -0.5q17 2 28.5 15.5t11.5 30.5q0 18 -11 31.5t-28 16.5v0zM578 549q2 0 3 -1.5t1 -4.5l-4 -57q-1 -3 0.5 -4t4.5 -1q5 1 9.5 1t8.5 -1q3 0 4 1t1 4 q0 14 -0.5 28.5t-1.5 29.5q0 5 4.5 6t8.5 3t8 5t7 6q6 7 9.5 15.5t3.5 18.5q0 17 -9.5 31t-25.5 19q-16 6 -32 1t-26 -18q-17 -22 -9 -47.5t35 -34.5v0zM829 588h2h1h-1h-2v0zM666 452q2 -3 4 -5t3 -5q2 -3 4.5 -1.5t4.5 2.5l121 78q2 0 4.5 -1.5t3.5 -2.5q10 -5 21.5 -4 t19.5 7q21 17 12.5 42.5t-35.5 25.5q-18 0 -29 -14t-7 -31q0 -3 -0.5 -4.5t-3.5 -2.5q-32 -18 -63.5 -37t-62.5 -39q-4 -2 -1.5 -4t4.5 -4v0zM388 290q0 11 0 4t0 -4v0v0zM512 335q-2 3 -4.5 5.5t-3.5 5.5q-2 2 -3 2t-3 -1q-11 -7 -21.5 -14t-21.5 -14q-2 -1 -3.5 -1t-3.5 1 q-9 7 -19 8t-20 -4t-15.5 -13.5t-5.5 -19.5q-1 -19 14.5 -30t32.5 -7q14 4 22 16t6 26q-1 2 0 3l2 2q13 7 25 14t24 15q3 1 1.5 3t-3.5 3v0zM397 504q2 0 4 1.5t4 1.5t3.5 -1.5l2.5 -2.5l88 -68q2 -2 3 -1.5t2 2.5q3 4 5.5 7.5t6.5 6.5q3 3 -1 5.5t-6 3.5l-84 60 q-4 2 -7.5 4.5t-0.5 8.5v1.5v0.5q-2 22 -24 26.5t-33 -14.5q-4 -9 -2.5 -19t8.5 -17q6 -6 14.5 -7.5t16.5 1.5v0zM690 330q-6 -1 -10 0.5t-8 5.5l-1.5 1.5l-1.5 1.5q-2 3 -4 3t-5 -3q-2 -2 -4.5 -4t-4.5 -4t-2 -2.5t2 -1.5q4 -3 8 -5.5t9 -4.5q3 -2 2.5 -5t-0.5 -6 q0 -2 0.5 -5t1.5 -6q3 -5 8 -8.5t11 -4.5q11 -1 18.5 6.5t7.5 17.5v0v0v0q0 12 -8 19.5t-19 4.5v0z" />
<glyph unicode="7" d="M545 219q7 -4 13 -1t12 5q66 19 135.5 41.5t142.5 45.5q28 9 53 16t39 -2q10 -6 15.5 -19t9.5 -25q2 -6 2.5 -13t2.5 -15q1 -5 3.5 -9.5t3.5 -10.5q0 -2 -1.5 -3.5l-1.5 -1.5q3 -15 7 -24.5t5 -23.5q0 -2 -0.5 -7.5t-1.5 -11.5q0 -5 -2.5 -14.5t-6.5 -14.5q-1 -1 -3.5 -1 t-3.5 -1q0 -1 0.5 -2t0.5 -2q-1 0 -3.5 -0.5t-3.5 -1.5q-5 -14 -57.5 -28t-75.5 -21l-318 -100q-48 -16 -88.5 -28.5t-61.5 -4.5q-31 12 -53 85t-41 131q-14 46 -26.5 88.5t-25 83.5t-25.5 81t-28 82q-2 4 -3 8.5t-3 8.5q-1 2 -3 3.5t-3 5.5q-9 24 -15 53.5t-19 54.5 q-2 3 -4 4.5t-3 4.5q-5 13 -9.5 29t-9.5 32q-10 30 -20.5 55t-20.5 63q-5 17 -8.5 32.5t-1.5 23.5q1 4 6.5 12t11.5 12t14 7t19 7q14 7 43.5 18t61.5 20.5t60.5 14.5t41.5 -2q25 -13 40.5 -66t32.5 -105q15 -48 28 -96t27 -91l120 -382v0z" />
<glyph unicode="8" d="M378 651q-50 0 -85 -33t-35 -79q0 -47 35 -80t85 -33t85 33t35 80q0 46 -35 79t-85 33v0zM663 653q-50 0 -85.5 -33t-35.5 -80t35.5 -80t85.5 -33t85.5 33t35.5 80t-35.5 80t-85.5 33v0zM977 475q-3 -2 -5 -4t-9 -4v396q0 41 -24.5 70.5t-62.5 29.5h-718 q-38 0 -67.5 -29.5t-29.5 -70.5v-397q0 2 -3.5 4.5t-6.5 4.5q-23 16 -34 0.5t4 -36.5q27 -33 80 -72t132 -71q-42 -144 -4.5 -228.5t99 -113.5t119.5 -4.5t55 98.5q0 -3 0.5 64.5t0.5 128.5q8 -2 14.5 -3.5t12.5 -3.5q0 -61 0.5 -125t0.5 -61q-3 -74 55 -98.5t119.5 4.5 t99 113.5t-4.5 228.5q79 32 131 71t79 72q15 21 2.5 36.5t-35.5 -0.5v0zM911 437q-50 -28 -96.5 -41t-87.5 -17.5t-75 -3.5t-58 2q-36 2 -50 -12t-15 -37q-9 6 -17 13t-17 16q-2 1 -3 2.5t-3 2.5q-7 8 -19.5 12t-32.5 3q-24 -1 -59 -2t-76 3t-87 16.5t-92 39.5v384 q0 52 15.5 72.5t63.5 20.5h635q46 0 60 -22t14 -71v-381v0z" />
<glyph unicode="9" d="M1006 186l-4 2l-4 2q-20 10 -40 19l-40 18q-17 8 -34.5 8t-34.5 -8q-38 -18 -75.5 -35.5t-75.5 -35t-75.5 -35t-75.5 -35.5q-17 -8 -34.5 -8t-35.5 8q-37 18 -74.5 35.5t-75.5 35t-75.5 35t-74.5 34.5q-18 9 -36.5 9t-36.5 -8q-19 -9 -37.5 -18t-37.5 -17 q-6 -3 -12.5 -6.5t-6.5 -11.5q1 -9 7 -12l12 -6l112 -52t111.5 -52t111.5 -52l112 -52q17 -8 35 -8.5t36 7.5q56 26 112 52.5t112.5 52.5t112.5 52.5t112 52.5q3 1 5.5 2t4.5 3q8 5 8 11.5t-8 12.5v0zM16 717q3 -2 7 -4l8 -4q55 -26 111 -52t111.5 -52l111 -52t111.5 -52 q17 -8 35.5 -8t36.5 8q55 26 111 52l112 52t111.5 52t111.5 52q4 2 7.5 4t7.5 5q5 4 5 9.5t-5 9.5q-4 3 -7.5 5t-7.5 4q-56 26 -111.5 51.5t-111 51.5l-111 52t-110.5 52q-19 9 -37.5 9t-37.5 -9q-56 -26 -111.5 -52l-111 -52t-111.5 -52t-111 -52q-4 -1 -7.5 -3t-6.5 -4 q-6 -5 -6 -10.5t6 -10.5v0zM1006 462l-4 2l-4 2q-20 10 -40 19l-40 18q-17 8 -34.5 8t-34.5 -8q-38 -18 -75.5 -35.5t-75.5 -35t-75.5 -35t-75.5 -35.5q-17 -8 -34.5 -8t-35.5 8q-37 18 -74.5 35.5t-75.5 35t-75.5 35t-74.5 35.5q-18 8 -36.5 8t-36.5 -8q-19 -9 -37.5 -17.5 t-37.5 -17.5q-6 -3 -12.5 -6.5t-6.5 -11.5q1 -9 7 -12l12 -6l112 -52t111.5 -52t111.5 -52l112 -52q17 -8 35 -8.5t36 7.5q56 26 112 52.5t112.5 52.5t112.5 52.5t112 52.5q3 1 5.5 2t4.5 3q8 5 8 11.5t-8 12.5v0z" />
<glyph unicode=":" d="M526 573h-55v-245h55q61 0 100.5 31t39.5 91v1q0 60 -39.5 91t-100.5 31v0zM531 948q-103 0 -192.5 -39t-156.5 -106.5t-106 -158t-39 -193.5q0 -56 11.5 -108t33.5 -99l-82 -202l212 29q32 -27 68.5 -49t77 -37.5t84 -23.5t89.5 -8q102 0 192 39t156.5 106.5 t105.5 158.5t39 194t-39 193.5t-105.5 158t-156.5 106.5t-192 39v0zM799 452q0 -54 -18.5 -99.5t-54 -78t-87 -51t-117.5 -18.5h-184v491h186q66 0 117 -17.5t86 -49.5t53.5 -77t18.5 -99v-1v0z" />
<glyph unicode=";" d="M990 257q-22 29 -43.5 51t-49.5 48q-13 12 -26.5 25t-14.5 30q-1 22 14.5 42.5t26.5 34.5q1 2 2.5 3.5l3.5 3.5q0 1 1 2l1 1q1 2 2 3l2 2q0 1 1 2l2 2q0 1 0.5 1.5l1.5 1.5t2 2.5t2 2.5q20 25 39 49t38 55q6 11 19.5 40t6.5 44q-8 18 -44.5 16.5t-62.5 -1.5q-32 0 -64 3 t-54 -6q-14 -5 -23.5 -28.5t-17.5 -40.5q-11 -26 -22 -47t-23 -40q0 -1 -1 -2.5t-2 -3.5h-0.5t-0.5 -1q-1 -1 -1.5 -2.5t-1.5 -2.5l-0.5 -0.5l-0.5 -0.5q-2 -3 -3.5 -5.5t-3.5 -4.5v-1l-1 -1q0 -1 -1 -2t-1 -2q-1 0 -1.5 -1t-1.5 -2q0 -1 -1 -2l-1 -1q-1 -2 -2 -3t-1 -2 l-1.5 -1.5t-0.5 -1.5q-2 -1 -3 -3t-3 -4q-11 -15 -23 -30.5t-32 -17.5l-1.5 1.5t-1.5 0.5l-0.5 0.5l-0.5 0.5l-0.5 0.5l-1.5 1.5v0h-1q0 1 -0.5 1.5l-0.5 0.5l-0.5 0.5l-0.5 0.5l-0.5 0.5l-0.5 0.5l-1 1v1q-1 0 -1 0.5v0.5q-1 0 -1 0.5v0.5l-1 1v1q-1 0 -1 0.5v0.5l-0.5 0.5 t-0.5 1.5l-0.5 0.5l-0.5 0.5l-0.5 1l-0.5 1v0.5v0.5q-1 1 -1 1.5t-1 1.5v0.5v0.5l-0.5 1l-0.5 1v1v1l-0.5 0.5t-0.5 1.5v0.5v0.5q0 1 -0.5 1.5l-0.5 0.5v1v1v0.5v1.5l-0.5 0.5l-0.5 0.5v1.5v1.5v0.5v0.5q0 1 -0.5 1.5l-0.5 0.5v1v1v1v1v1v1v1v2v0v1q-1 1 -1 2v2v0v0v2v2v0.5 v0.5q0 1 -0.5 1.5t-0.5 1.5v0.5v0.5v1.5v1.5l0.5 0.5l0.5 0.5v1.5v1.5v0.5v1.5v1v1v1.5v0.5v1.5v1.5v0.5v0.5q1 1 1 2v2v0v1v7v7v1.5v0.5q1 4 1 8v7q1 33 5.5 71.5t-10.5 63.5q-14 24 -56 25t-78 1q-43 0 -76 -6t-46 -32q15 -10 29.5 -14t22.5 -20q9 -16 11 -47t2 -62 q0 -1 -0.5 -2.5t-0.5 -3.5q0 -27 -4.5 -61t-21.5 -37q-18 -4 -33 16t-24 34q-2 2 -3.5 4.5t-3.5 4.5q0 1 -0.5 1.5l-1.5 1.5q-1 2 -2 3.5t-2 3.5q-1 0 -1.5 1t-0.5 2q-1 1 -2 3t-3 4l-0.5 0.5t-0.5 1.5q-1 2 -2.5 4t-3.5 5q-14 22 -26.5 45.5t-26.5 51.5q-8 17 -18 39.5 t-20 27.5q-17 9 -48.5 7t-54.5 -2q-28 0 -53.5 0.5t-42.5 -12.5q0 -30 12 -56t24 -50q16 -32 32.5 -63.5t34.5 -62.5q1 -1 2 -2.5t2 -2.5q2 -4 4 -7.5t4 -6.5q1 -2 2 -3.5t2 -3.5q2 -3 4 -6.5t5 -7.5q0 -1 1 -2.5t2 -2.5q3 -5 6 -9.5t6 -9.5h0.5h0.5q3 -5 6 -9.5t6 -9.5 q1 -1 2 -2.5t2 -2.5q2 -4 4.5 -7t4.5 -6q1 -2 2.5 -3.5t2.5 -3.5q2 -3 4.5 -6.5t4.5 -6.5q1 -1 2 -2.5t2 -2.5q4 -5 7.5 -9.5t6.5 -9.5q47 -59 107.5 -108t163.5 -60q33 -3 72 -2.5t51 19.5q14 25 10.5 67.5t29.5 47.5q24 4 43 -20t32 -39q22 -25 50 -49t67 -31h2.5h2.5 q35 15 110.5 4t81.5 33q2 14 -11.5 34.5t-22.5 31.5v0z" />
<glyph unicode="&#x3c;" d="M873 814q-36 36 -77.5 63.5t-87 46.5t-94.5 29t-100 10q-105 0 -197.5 -40t-161 -109t-108.5 -161.5t-40 -197.5q0 -67 17 -131.5t50 -121.5l-72 -263l269 70q56 -30 117.5 -46t125.5 -16v0v0v0q105 0 197.5 40t161.5 109t109 161.5t40 197.5q0 51 -10 100t-28.5 94.5 t-46.5 87t-64 77.5v0zM514 33v0q-57 0 -111.5 15t-103.5 44l-15 9l-160 -42l43 156l-10 16q-32 50 -48.5 107t-16.5 117q0 87 33.5 164t90.5 134t134 90.5t164 33.5q43 0 83.5 -8t78.5 -24t72.5 -39t64.5 -53q29 -30 52 -64.5t39 -72.5t24 -78.5t8 -82.5q0 -87 -33 -164 t-90.5 -134.5t-134.5 -90.5t-164 -33v0zM746 349q-10 5 -44 21.5t-43 19.5t-15.5 3t-13.5 -9q-6 -10 -20 -27t-20 -23q-5 -6 -11.5 -7t-15.5 4q-10 5 -38 17.5t-64 45.5q-29 25 -47 51.5t-24 36.5q-5 9 -2 15t8 11q4 4 9 10l10 12q5 5 7 10t5 11q4 6 3 11.5t-4 10.5 q-2 5 -16.5 40t-22.5 54q-7 19 -14.5 20.5t-13.5 1.5t-12 0.5t-13 0.5q-6 0 -15.5 -3.5t-17.5 -12.5q-9 -10 -27 -34.5t-18 -71.5t23.5 -86t28.5 -45q2 -3 18.5 -26t44.5 -53t67 -61t87 -52q22 -10 40 -16t32 -10q23 -8 43 -8t37 3q18 2 48 20t37 40q8 22 9 39t-1 21 q-3 4 -9 7t-15 8v0z" />
<glyph unicode="=" d="M383 254v-4.5v-4.5q-1 -39 -0.5 -77.5t-0.5 -77.5q0 -5 2.5 -8t7.5 -4q54 -16 105.5 -19t100 8t93.5 35t88 62q52 46 82 105t40 128q10 72 -6 141t-53.5 126.5t-93.5 100t-127 63.5q-81 23 -160.5 11.5t-146 -50.5t-115 -103t-68.5 -146q-5 -21 -7.5 -43t-2.5 -43 q0 -63 -0.5 -126t-0.5 -125.5t0.5 -125.5t0.5 -125q0 -10 -2 -12t-11 -2q-25 0 -49 0.5t-49 -0.5q-6 0 -8 2t-2 8v130v129.5v129.5t1 130q0 68 20 132t57 122q30 47 66 85t78.5 67.5t91 49.5t103.5 31q34 7 67.5 8.5t67.5 -1.5q43 -3 83.5 -13t78.5 -26t73 -38.5t67 -51.5 q54 -48 91.5 -107t57.5 -128q8 -25 12.5 -51t7.5 -52q4 -53 -2 -105t-23 -102q-21 -57 -50 -105.5t-67 -87.5t-85.5 -70t-103.5 -53q-44 -17 -90 -25t-93 -8q-54 1 -108.5 0.5t-108.5 -0.5q-10 0 -12 2t-2 12v126v126t0.5 126t0.5 127q0 40 14.5 77.5t40 67.5t60.5 51t75 28 q48 8 93 -1.5t81.5 -34t62.5 -62.5t36 -85q11 -48 0.5 -94.5t-36.5 -84.5t-65.5 -64.5t-86.5 -34.5q-44 -7 -84.5 0.5t-78.5 29.5q-1 1 -3 2t-5 2v0z" />
<glyph unicode="&#x3e;" d="M512 621l-288 -166v333l288 -167l295 171l-295 171l-295 -171v-341l295 -171l288 167v-334l-288 167l-295 -171l295 -170l295 170v342v0v0z" />
<glyph unicode="?" d="M1024 787q0 21 -1.5 40.5t-12.5 37.5q-9 14 -23 24.5t-30 14.5q-20 6 -41.5 6h-42.5h-90t-90 0.5t-90.5 0.5h-90.5h-20h-20h-24.5h-24.5h-89.5h-89.5h-45h-45h-24h-24q-10 0 -19 -1t-19 -4q-32 -9 -50 -35.5t-18 -59.5v-90v-90v-88.5t3 -89.5q3 -41 14 -81.5t28 -78.5 q31 -68 81 -124t112 -96q35 -22 72.5 -38t76.5 -26t79.5 -13.5t81.5 -0.5q40 2 78.5 11.5t75.5 24t71.5 35t65.5 46.5q57 47 99 108.5t64 132.5q12 41 17 83t5 84v89.5v88.5v45v44v0zM821 555q-6 -19 -22 -33.5t-30 -28.5q-34 -33 -68.5 -65.5t-68.5 -65.5q-18 -17 -35 -34 t-35 -34q-14 -12 -31 -17t-35 -1q-21 5 -36.5 21t-30.5 30q-17 16 -33.5 32t-33.5 32q-34 33 -69 66t-69 67q-26 26 -21 63.5t41 52.5q16 7 34 5.5t33 -11.5q9 -6 17 -14.5t16 -15.5q9 -9 17.5 -17t17.5 -17q33 -32 66 -64.5t68 -63.5q39 37 77.5 74t77.5 74q16 16 33 33.5 t41 21.5q18 3 36 -3.5t29 -21.5q12 -13 15.5 -30.5t-1.5 -34.5v0z" />
<glyph unicode="@" d="M545 332q-7 -6 -15.5 -9t-17.5 -3t-17.5 3t-15.5 9l-479 391v-614h1024v614l-479 -391v0zM512 450q8 0 15 3t13 8l405 331h-866l405 -331q6 -5 13 -8t15 -3v0z" />
<glyph unicode="A" d="M953 573h-45q-33 0 -50.5 18.5t-17.5 42.5v29q0 55 -27.5 108.5t-70.5 96t-96.5 69t-104.5 26.5h-217q-68 0 -127 -25.5t-103 -69.5t-69 -103t-25 -127v-389q0 -64 25 -120.5t67 -98.5t95.5 -66.5t109.5 -24.5h412q62 0 119.5 24.5t101 67t69 100t25.5 121.5v246 q0 34 -14.5 54.5t-56.5 20.5v0zM324 696h186q25 0 42.5 -18.5t17.5 -42.5q0 -25 -17.5 -43.5t-42.5 -18.5h-186q-24 0 -41.5 18.5t-17.5 43.5q0 24 17.5 42.5t41.5 18.5v0zM694 205h-370q-24 0 -41.5 16t-17.5 40q0 25 17.5 40.5t41.5 15.5h370q24 0 41.5 -15.5t17.5 -40.5 q0 -24 -17.5 -40t-41.5 -16v0z" />
<glyph unicode="B" d="M1024 963v-708q-65 -40 -136 -64.5t-144 -35.5t-147.5 -8.5t-146.5 15.5q-36 -18 -70.5 -40t-68 -45t-67.5 -45.5t-69 -42.5q4 55 10.5 109.5t12.5 109.5q1 22 2.5 47.5t-21.5 38.5q-45 35 -81 81t-60.5 98t-35 108.5t-4.5 114.5q7 75 42.5 140t81.5 127h902v0zM846 833 q-59 44 -131.5 63.5t-145.5 16.5q-40 -1 -80.5 -9t-78.5 -23t-72 -38t-62 -53q-32 -33 -52.5 -76t-21.5 -90q-3 -64 28.5 -121.5t81.5 -95.5q52 -40 115 -62t129 -25.5t131.5 11t123.5 46.5q63 36 108.5 97.5t46.5 136.5q2 67 -32 125.5t-88 96.5v0z" />
<glyph unicode="C" d="M1024 459q0 41 -29.5 70.5t-70.5 29.5q-24 0 -44.5 -10t-33.5 -28q-30 22 -66 39t-76.5 29.5t-85 19.5t-91.5 9l75 219l185 -43q2 -1 3.5 -1h3.5q1 -32 24 -54.5t55 -22.5q33 0 56.5 23.5t23.5 56.5t-23.5 56t-56.5 23q-24 0 -43.5 -13t-28.5 -34q-1 1 -2.5 1.5t-3.5 1.5 l-201 47q-7 2 -13.5 -1.5t-8.5 -10.5l-85 -249q-46 -1 -89 -8t-82.5 -19.5t-74.5 -29t-64 -37.5q-14 17 -34 26.5t-43 9.5q-41 0 -70.5 -29.5t-29.5 -70.5q0 -31 16.5 -55.5t42.5 -36.5q-2 -12 -3.5 -23.5t-1.5 -23.5q0 -61 35.5 -115.5t97.5 -95t145 -63.5t178 -23 q94 0 177 23t145 63.5t98 95t36 115.5q0 12 -1.5 23t-3.5 22q28 11 45.5 36.5t17.5 57.5v0zM277 378q0 30 22 52.5t53 22.5q30 0 51.5 -22.5t21.5 -52.5t-21.5 -51.5t-51.5 -21.5q-31 0 -53 21.5t-22 51.5v0zM678 175q-26 -26 -67 -38.5t-98 -12.5q-59 0 -100 12.5t-67 38.5 q-3 3 -3 8t3 9q4 3 8.5 3t8.5 -3q22 -23 59 -33.5t89 -10.5q54 0 91 10.5t59 33.5q4 3 8.5 3t8.5 -3q3 -4 3 -9t-3 -8v0zM673 305q-30 0 -52 21.5t-22 51.5t22 52.5t52 22.5q31 0 52.5 -22.5t21.5 -52.5t-21.5 -51.5t-52.5 -21.5v0z" />
<glyph unicode="D" d="M511 959q-106 0 -199 -40.5t-162.5 -110t-110 -163t-40.5 -198.5q0 -106 40.5 -199.5t110 -163t162.5 -109.5t199 -40t199 40t162.5 109.5t110 163t40.5 199.5q0 105 -40.5 198.5t-110 163t-162.5 110t-199 40.5v0zM849 723q46 -56 72 -125.5t27 -146.5q-5 1 -33 6t-70 9 t-94.5 5t-106.5 -6q-3 5 -5 11t-5 11l-14 32t-15 32q61 24 105.5 52.5t74 53.5t45.5 43t19 23v0zM511 884q83 0 157.5 -29.5t132.5 -80.5q-6 -9 -59.5 -62t-169.5 -96q-27 49 -54.5 93t-50 78t-38.5 56.5t-21 28.5q25 6 50.5 9t52.5 3v0zM325 842q4 -6 20 -28t38.5 -56 t49.5 -77t54 -92q-77 -20 -147 -31t-124.5 -16t-90 -5.5t-42.5 -0.5q11 51 32.5 97t53 85.5t71 71t85.5 52.5v0zM74 447v6.5v6.5q7 0 47.5 0.5t102.5 6t139.5 18.5t159.5 37q10 -18 19 -36.5t17 -37.5q-5 -1 -9 -2.5t-8 -2.5q-85 -28 -149.5 -74t-109.5 -91.5t-69 -81.5 l-28 -42q-26 29 -47 62.5t-35.5 70.5t-22 77t-7.5 83v0zM511 9q-76 0 -144.5 24.5t-123.5 68.5q2 6 21.5 37t60 73t104.5 86t157 77h1t1 1q24 -60 40.5 -114t27.5 -97.5t17 -75t9 -45.5q-40 -17 -83 -26t-88 -9v0zM755 84q-1 10 -6.5 38t-16 69t-25.5 93.5t-37 111.5 q52 8 98.5 7t83.5 -6.5t61 -11.5t30 -8q-8 -46 -24 -88t-40.5 -79.5t-55.5 -69t-68 -56.5v0z" />
<glyph unicode="E" d="M512 666q-22 0 -38 -16t-16 -38v-327q-1 -47 -19 -88t-49 -71.5t-72.5 -48t-88.5 -17.5q-48 0 -89.5 18t-72.5 49t-49 72.5t-18 88.5v72v70h175v-140q0 -22 16 -38t38 -16q23 0 39 16t16 38v331q1 46 19.5 86t49.5 70t72 47.5t87 17.5q47 0 88 -17.5t71.5 -47.5t49 -70.5 t19.5 -86.5v-73l-104 -31l-70 33v63q0 22 -16 38t-38 16v0zM1024 288q0 -47 -18 -88.5t-49 -72.5t-73 -49t-89 -18t-88.5 17.5t-72.5 48.5t-49 72t-19 88v143l70 -32l104 31v-144q0 -23 16 -38.5t39 -15.5q22 0 38 15.5t16 38.5v146h175v-70v-72v0z" />
<glyph unicode="F" d="M307 614h103v-348h-103v348v0zM164 758h102v-492h-266v348h164v144v0zM164 532h-62v-184h62v184v0zM307 655h103v103h-103v-103v0zM451 614h266v-471h-266v82h163v41h-163v348v0zM553 348h61v184h-61v-184v0zM1024 614v-471h-266v82h164v41h-164v348h266v0zM922 532h-62 v-184h62v184v0z" />
<glyph unicode="G" d="M828 955q-22 12 -82 5t-137 -31q-68 -46 -129 -104t-107.5 -131.5t-75 -163t-32.5 -199.5q-2 -5 -11.5 -2t-12.5 5q-36 70 -47 149t20 185q6 10 -6.5 19t-15.5 5q-7 -6 -29.5 -32.5t-41.5 -58.5q-46 -80 -55 -168t14.5 -170.5t78 -152.5t135.5 -115q80 -45 168 -54 t170 14.5t152.5 77.5t115.5 134q51 93 58 221.5t-11.5 248.5t-53 210.5t-65.5 107.5v0z" />
<glyph unicode="H" d="M922 666h-256v61h256v-61v0zM499 425q14 -21 21 -46t7 -55q0 -24 -4.5 -44.5t-13.5 -37.5q-9 -18 -21.5 -32t-28.5 -25q-15 -11 -33 -19t-38 -13t-41 -7.5t-42 -2.5h-305v635h297q22 0 42.5 -3.5t39.5 -7.5t34.5 -12t29.5 -17q13 -9 23 -21t18 -28q7 -14 10.5 -33 t3.5 -41q0 -23 -5.5 -43t-15.5 -36q-11 -16 -27 -29t-38 -23q29 -9 51 -23.5t36 -35.5v0zM133 522h146q18 0 33.5 3t27.5 12t18 22t6 33q0 11 -2 20t-6 16t-9.5 12.5t-11.5 9.5q-7 4 -14.5 7t-16.5 5q-9 1 -17.5 2.5t-18.5 1.5h-135v-144v0zM389 332q0 24 -7 41t-20 27 q-14 11 -32 15.5t-41 4.5h-156v-174h154q10 0 19.5 1.5t18.5 3.5q10 2 18 5.5t15 7.5q7 5 13 11.5t10 14.5t6 18.5t2 23.5v0zM1023 338h-329q0 -23 8.5 -48.5t22.5 -38.5q14 -14 34.5 -21t46.5 -7q19 0 35.5 5.5t30.5 15.5q13 9 21.5 18t11.5 25h110q-13 -46 -33 -74 t-48 -46q-27 -18 -60 -28t-72 -10q-27 0 -51.5 4.5t-45.5 12.5q-22 9 -40.5 21.5t-33.5 28.5q-15 15 -26.5 34t-19.5 42q-8 22 -12.5 46t-4.5 51q0 25 4.5 49t12.5 46q9 22 20.5 41.5t27.5 35.5q15 16 33.5 28.5t40.5 22.5q21 9 45 13.5t50 4.5q29 0 54.5 -5.5t46.5 -16.5 q22 -11 40 -26t31 -34q14 -19 24 -41.5t17 -46.5q6 -24 8 -51.5t0 -50.5v0zM898 420q-2 23 -10 41t-19 30t-29.5 18.5t-41.5 6.5q-15 0 -27.5 -2.5t-22.5 -7.5q-9 -6 -17 -12t-14 -14q-6 -7 -10.5 -14.5t-6.5 -16.5q-3 -8 -4 -14.5t-2 -14.5h204v0z" />
<glyph unicode="I" d="M1024 451h-512v-512h-512v512h512v512h512v-512v0z" />
<glyph unicode="J" d="M966 415q-35 43 -80.5 72t-95.5 50q-65 26 -134.5 38t-139.5 13h-11h-13v47.5v48.5q-31 -3 -63 -6.5t-71 -6.5v-7v-5v-38t1 -37q0 -6 -2 -8.5t-8 -4.5q-51 -10 -99.5 -28t-92.5 -45q-35 -21 -64.5 -47t-52.5 -59q-27 -41 -36 -86t2 -91h122.5h120.5h120.5h122.5v148.5 v144.5q15 0 31.5 0.5t30.5 -0.5q39 -2 77.5 -9.5t74.5 -22.5q48 -21 80.5 -56.5t45.5 -87.5q1 -3 2 -9t2 -6h-83.5h-86.5v5v8q0 30 -0.5 59.5t0.5 59.5q0 6 -2.5 8.5t-8.5 4.5q-19 3 -36.5 6.5t-36.5 6.5q-13 2 -27.5 2.5t-22.5 0.5v-134.5v-128.5h122.5h121h121h122.5 q1 15 2.5 24t2.5 20q2 45 -13.5 83.5t-44.5 72.5v0zM358 317h-86.5h-82.5q4 54 56 109.5t113 62.5v-83.5v-88.5v0z" />
<glyph unicode="K" d="M461 -61h-376l427 1024l427 -1024h-376v169l173 87l-12 26l-161 -81v79l100 53l-14 27l-86 -45v115h-102v-177l-86 61l-16 -25l102 -71v-218v0z" />
<glyph unicode="L" d="M591 472l132 132l-200 116l-61.5 35.5t-137.5 79t-142 81.5t-74 43q-2 1 -3.5 2t-3.5 2l490 -491v0zM946 475l-35 20t-61.5 35.5t-64 37t-41.5 24.5l-137 -136l140 -139q13 8 43 25t61.5 35t58.5 33.5t35 20.5q18 10 17.5 23t-16.5 21v0zM71 960q-4 -4 -6.5 -9.5 t-2.5 -13.5v-95.5v-164v-155.5v-69v-74v-164.5v-168.5v-86q0 -4 1 -7.5t2 -5.5l509 509l-503 504v0zM591 439l-501 -500q2 0 4 1l4 2q8 4 75 43t145 84t141.5 81.5l63.5 36.5l203 118l-135 134v0z" />
<glyph unicode="M" d="M551 763q-13 -2 -24.5 -4t-22.5 -4q-34 -5 -68.5 -7t-68.5 2q-16 1 -30.5 5t-28.5 11q-20 10 -26.5 22t-5.5 34q1 17 5.5 34t12.5 32q9 17 19.5 32.5t21.5 30.5q6 10 14 11.5t18 -4.5q18 -10 36.5 -16t38.5 -10q38 -8 77.5 -10t78.5 -1q53 0 105 6.5t103 16.5 q2 0 4.5 0.5t4.5 0.5q8 0 12 -4t3 -12q-3 -20 -5 -40t-5 -40q0 -5 -2.5 -10t-5.5 -9q-55 -63 -110.5 -127l-111 -128t-110.5 -127.5t-111 -127.5q-8 -10 -10 -17t-1 -21q7 0 14 -0.5t14 -1.5q34 -4 64 -16.5t58 -29.5q24 -14 47.5 -28.5t47.5 -27.5q22 -13 46 -24t50 -16 q30 -7 60.5 -8t60.5 7q14 4 26.5 10t24.5 14q1 1 3 2t5 3q1 -13 2 -25.5t1 -24.5q-1 -31 -8.5 -59.5t-23.5 -55.5q-16 -25 -38 -41.5t-53 -19.5q-19 -3 -38.5 0.5t-37.5 8.5q-42 14 -80.5 34.5t-74.5 44.5q-18 13 -36 26.5t-36 27.5q-36 26 -75 43t-82 22q-21 3 -41.5 4 t-40.5 2q-14 1 -27.5 0.5t-27.5 -0.5q-9 0 -14 4.5t-5 13.5q0 25 -0.5 49.5t0.5 49.5q1 6 4 12.5t7 11.5l98 116t97.5 115.5t97.5 115t98 115.5q1 1 2.5 3t3.5 4v0z" />
<glyph unicode="N" d="M96 662q-17 29 -43.5 54.5t-47.5 33.5l-5 2v37l3 1h260v-15v-21q-26 -3 -49.5 -16.5t-14.5 -42.5q24 -55 48 -109.5t47 -109.5t46.5 -109.5t48.5 -109.5l111 208q-32 66 -59 132.5t-63 130.5q-11 19 -37.5 22.5t-48.5 4.5v34l246 -1l1 -33q-17 -2 -32.5 -8.5t-13.5 -26.5 l70 -154q17 37 35.5 73t33.5 74q7 30 -18 36t-46 7l-1 32l220 1v-33q-24 -2 -45.5 -10t-34.5 -25q-32 -50 -57.5 -105.5t-51.5 -109.5q25 -58 51 -116t51 -112l187 432q-9 21 -28.5 30.5t-40.5 14.5l-2 35l208 -2v-34q-7 -1 -13.5 -3t-13.5 -5q-12 -6 -23 -16.5t-19 -24.5 l-258 -594h-43l-123 289l-149 -289h-44q-33 68 -62 137.5t-57.5 139t-58.5 138.5t-64 136v0z" />
<glyph unicode="O" d="M927 618q-55 -17 -87.5 -79.5t-32.5 -118.5q0 -71 38 -136.5t104 -83.5q-9 -31 -25.5 -65.5t-37.5 -66t-44.5 -58.5t-46.5 -44q-20 -14 -43.5 -20t-51.5 -6q-19 0 -40.5 4.5t-48.5 15.5q-23 10 -43 15.5t-34 5.5q-11 0 -36 -7.5t-60 -21.5q-19 -6 -35 -9.5t-27 -3.5 q-31 0 -59.5 12.5t-57.5 35.5q-44 41 -78 90t-57.5 104t-36 115t-12.5 122q0 61 18.5 118.5t53 102t82.5 71.5t107 27q35 0 62.5 -7t51.5 -19q23 -14 42.5 -19.5t40.5 -5.5q17 0 36 3.5t38 11.5q45 17 76 27t49 10q45 0 81.5 -14.5t65.5 -41.5q12 -12 24.5 -28t23.5 -36v0z M507 731q0 42 16 79.5t44 73.5q30 32 67.5 52t80.5 27q0 -44 -15 -86t-45 -76q-32 -36 -68.5 -53t-79.5 -17v0z" />
<glyph unicode="P" d="M1024 339q-1 -50 -7.5 -99.5t-24.5 -96.5q-31 -81 -89.5 -129t-141.5 -65q-26 -6 -52 -8t-52 -2h-143.5h-143.5h-144h-144h-4h-4v0.5v1.5l54 54t55 54q37 37 74 74.5t74.5 74.5t74.5 74.5t74 74.5l2 2l2 2q4 4 8.5 6t9.5 -1q6 -2 8 -7t2 -10v-77v-76v-5.5v-4.5q0 -1 2 -1 h3q32 0 64.5 0.5t65.5 1.5q12 1 24 4t23 7q36 12 56 38.5t27 62.5q4 19 6 39t2 40v137.5v136.5q0 5 1.5 8.5t4.5 6.5l112 112l112 112q2 2 3 4l2 4q1 0 2.5 -0.5t1.5 -1.5v-4v-4v-135.5v-135v-135v-134.5v0zM239 259q0 67 -0.5 134t0.5 135q0 20 2 41t6 41q7 39 28.5 66.5 t60.5 39.5l16 4t16 3q36 1 71.5 1.5t70.5 1.5l1 -0.5l1 -0.5v-4v-4v-75.5v-75.5q0 -2 -0.5 -4t0.5 -4q2 -3 4.5 -7t5.5 -6q4 -3 8 -1.5t7 4.5q2 1 3.5 3t3.5 3q50 50 100 100.5t100 100.5l100 100l100 100q2 2 3.5 5t3.5 3h-5h-4h-144h-144h-144h-144q-25 0 -50 -2.5 t-50 -7.5q-87 -18 -146.5 -68t-89.5 -134q-17 -46 -23.5 -94t-6.5 -97v-134.5v-134.5v-134v-135v-4v-6q3 2 4.5 3.5t2.5 3.5q57 56 113 112.5t113 112.5q3 3 4.5 6.5t1.5 8.5v0z" />
<glyph unicode="Q" d="M969 606q0 54 -18.5 99t-50.5 80q6 12 13.5 59.5t-19.5 116.5l-44 -2t-139 -67q-40 11 -82 17t-84 6q-43 0 -85 -6t-82 -17q-95 65 -139 67l-44 2q-27 -69 -19.5 -116.5t13.5 -59.5q-32 -35 -50.5 -80t-18.5 -99q0 -96 26.5 -156.5t69.5 -97t97.5 -52.5t109.5 -23 q-14 -12 -26 -34t-16 -55q-29 -12 -89 -16.5t-105 72.5l-26 32.5t-76 35.5l-24.5 -4.5t20.5 -35.5l25.5 -20t48.5 -78l42.5 -54t181.5 -24q0 -42 0.5 -93.5t0.5 -63.5h329q0 16 0.5 82.5t0.5 133.5q0 46 -13.5 76.5t-31.5 46.5q56 6 110 22t97.5 52t70 97t26.5 157v0z M131 281q-1 -2 -4.5 -2.5t-6.5 0.5q-4 2 -5.5 5t-0.5 5q1 3 4.5 3.5t6.5 -1.5q4 -1 6 -4t0 -6v0zM158 251q-2 -2 -6 -1t-7 4q-4 4 -4.5 8t2.5 6q2 2 6 1.5t7 -4.5q4 -3 4.5 -7t-2.5 -7v0zM184 213q-3 -2 -7 -0.5t-7 6.5q-3 4 -3 8.5t3 7.5q3 2 7 0t8 -6q3 -4 3 -9t-4 -7v0z M220 176q-2 -3 -7 -2.5t-10 5.5q-4 4 -5 9t2 8q2 3 7 2t10 -5q4 -4 5 -9t-2 -8v0zM270 155q-1 -4 -6 -6t-11 0q-5 2 -8.5 6t-2.5 8q2 4 6.5 5.5t10.5 -0.5t9 -6t2 -7v0zM310 140q-6 0 -10 3t-4 7t4 7t10 3t10 -2.5t4 -6.5q1 -5 -3.5 -8t-10.5 -3v0zM363 147q-6 -1 -10.5 1 t-5.5 6t2.5 7.5t9.5 4.5t10.5 -1t5.5 -6t-2.5 -7.5t-9.5 -4.5v0z" />
<glyph unicode="R" d="M513 257v0v0h-0.5h-0.5h0.5h0.5v0zM238 460q2 10 4.5 21t4.5 22q2 10 2 21.5v22.5v78v58t-1 58q-6 0 -12.5 -1.5t-12.5 -3.5q-17 -5 -32 -10t-29 -12q-56 -29 -96 -76t-57 -113q-17 -62 -4.5 -122.5t37.5 -101.5q6 -9 13 -21t15 -18q7 1 13 5.5t11 8.5q11 6 21 13.5 t19 15.5q4 3 8 7t8 7q30 25 51.5 62.5t36.5 78.5v0zM511 257h0.5h0.5h-0.5h-0.5v0v0v0zM318 314q-4 9 -8 18.5t-8 18.5q-2 4 -3 8t-3 9v0q-5 -8 -9 -16l-8 -16q-9 -14 -17.5 -27.5t-18.5 -26.5q-12 -16 -25.5 -31.5t-28.5 -28.5q-9 -7 -17 -14t-16 -13v-1.5v-0.5 q5 -2 9.5 -4.5t9.5 -4.5q10 -4 20.5 -8t21.5 -7q38 -10 83 -8.5t80 11.5q8 3 25 9t22 11v1q-8 5 -15.5 11.5t-14.5 12.5q-23 21 -43 45t-36 52v0zM1015 525q-18 67 -57.5 113.5t-95.5 75.5q-14 7 -29 12t-32 10q-6 2 -12.5 3.5t-13.5 1.5v-58v-58v-77v-23.5t2 -21.5 q2 -11 4.5 -21.5t4.5 -21.5q15 -41 36.5 -78.5t51.5 -62.5q4 -3 8 -7l7 -7q10 -8 20 -15l20 -14q5 -3 11.5 -8t12.5 -6q8 6 15.5 18t12.5 21q26 41 38.5 101.5t-4.5 122.5v0zM781 282q-10 13 -18.5 26.5t-17.5 27.5l-8 16t-9 16v0q-2 -4 -3 -8.5t-3 -8.5q-4 -9 -8 -18.5 t-8 -18.5q-16 -28 -36 -52t-43 -44q-7 -6 -14 -13t-16 -12v-1q5 -5 22 -11t25 -8q35 -11 80 -12.5t83 8.5q11 3 21.5 7t20.5 8q5 3 9.5 5t9.5 4v1v1q-8 7 -16 13.5t-17 13.5q-15 13 -28.5 28.5t-25.5 31.5v0zM675 457q3 9 5 19l4 20q3 10 2.5 22.5t-0.5 23.5v87v56t-1 55 q0 1 -0.5 1h-2.5q-9 -2 -17 -3.5t-20 -5.5q-18 -5 -33.5 -12.5t-30.5 -15.5q-13 -8 -25.5 -18t-24.5 -19q-4 -4 -9 -9.5t-10 -10.5v-1v0v-0.5v-0.5q6 -7 11.5 -14.5t11.5 -15.5q11 -17 21 -36.5t16 -41.5q16 -51 10.5 -109.5t-25.5 -99.5q-6 -13 -13 -25t-15 -23 q-5 -5 -9 -10.5t-8 -10.5v0v0v-1l1 -1v0v0q19 11 34.5 26t31.5 28q9 8 17 17t15 18q20 25 36.5 51.5t27.5 59.5v0zM512 259q-4 5 -8.5 10.5t-8.5 10.5q-8 11 -15 23t-13 25q-20 41 -25.5 99.5t10.5 110.5q6 21 16 40.5t21 36.5q6 8 11.5 15.5t11.5 14.5v0.5t-1 0.5 q1 0 1 0.5v0.5q-5 6 -10 11t-10 9q-12 9 -24 19.5t-26 17.5q-14 8 -30 16t-33 12q-12 5 -20 6t-18 3h-1.5h-1.5v-56v-56v-86q0 -12 -0.5 -24.5t1.5 -22.5q3 -10 5 -20t5 -19q11 -33 27.5 -59.5t36.5 -51.5q7 -9 15 -18t17 -16q16 -14 31.5 -29t34.5 -26v0v0q0 1 0.5 1.5 l0.5 0.5v0v0v0z" />
<glyph unicode="S" d="M1024 768h-152q-22 0 -42.5 -26.5t-20.5 -65.5v-90h180v-180h-180v-450h-179v450h-270v-450h-180v450h-180v180h180v90q0 55 19 104.5t52 86t77 57.5t94 21h152v-177h-152q-22 0 -42 -26.5t-20 -65.5v-90h270v90q0 55 19 104.5t51.5 86t77 57.5t94.5 21h152v-177v0z" />
<glyph unicode="T" d="M547 86l90 65q-1 2 -1 4v4q0 30 21.5 51.5t51.5 21.5t51 -21.5t21 -51.5t-21 -51t-51 -21q-11 0 -21 3t-18 8l-123 -88v-71h-70v215l-126 91q-8 -5 -17 -7.5t-19 -2.5q-30 0 -51 21.5t-21 51.5t21 51t51 21t51.5 -21t21.5 -51q0 -3 -0.5 -6t-0.5 -6l90 -65v215l-126 91 q-8 -5 -17 -7.5t-19 -2.5q-30 0 -51 21.5t-21 51.5t21 51t51 21t51.5 -21t21.5 -51q0 -3 -0.5 -6t-0.5 -6l90 -66v202l-127 92q-7 -4 -16 -6.5t-19 -2.5q-30 0 -51 21t-21 51t21 51.5t51 21.5t51.5 -21.5t21.5 -51.5q0 -3 -0.5 -6.5t-0.5 -6.5l90 -65v162h70v-307l90 65 q-1 3 -1 5.5v4.5q0 30 21.5 51.5t51.5 21.5t51 -21.5t21 -51.5t-21 -51t-51 -21q-11 0 -20.5 2.5t-17.5 7.5l-124 -89v-202l90 65q-1 2 -1 4v5q0 30 21.5 51t51.5 21t51 -21t21 -51q0 -31 -21 -52t-51 -21q-11 0 -21 3t-18 8l-123 -89v-215v0z" />
<glyph unicode="U" d="M0 478q0 -94 36.5 -177t100 -144.5t148.5 -97.5t182 -36q55 0 107 12.5t98 34.5l352 -103l-115 366q12 34 18.5 71t6.5 75q0 94 -36.5 177t-100 145t-148.5 97.5t-181 35.5q-97 0 -182 -36t-148.5 -97.5t-100.5 -144.5t-37 -178v0zM784 479q0 -29 -5.5 -56.5t-15.5 -52.5 l59 -166l5 -15l1 1v0l20 -54l-75 18l-160 51q-33 -17 -70 -26t-76 -9q-66 0 -123.5 24t-100.5 66t-68 98t-25 120t25 120.5t68 98.5t101 66.5t123 24.5q66 0 123.5 -24.5t100.5 -66.5t68 -98t25 -120v0z" />
<glyph unicode="V" d="M563 -61h-102q-85 0 -159.5 32t-130 87.5t-88 130t-32.5 159.5v512q0 43 30 73t73 30q42 0 72 -30t30 -73v-512q0 -42 16 -79.5t44 -65t65 -44t80 -16.5h102q85 0 145 52.5t60 127.5t-33.5 127t-68.5 52h-205q-43 0 -73 30t-30 72q0 43 30 73t73 30h205q63 0 119 -30.5 t97.5 -82.5t66 -122t24.5 -149q0 -80 -32.5 -150t-88 -122t-130 -82t-159.5 -30v0z" />
<glyph unicode="W" d="M763 959l42.5 -1.5t83.5 -28.5q15 1 27 -6t20 -21t16.5 -43t-2.5 -50q-4 -4 -9.5 7l-5.5 11l-5.5 -15.5t-16.5 -23.5q1 -43 -11 -71.5t-17 -38.5q-2 -6 -1 -11.5t3 -10.5q2 -6 21.5 -80t17.5 -108q-1 -34 -15 -68.5t-28 -47.5q3 -28 -6 -50.5t-16 -34.5q-6 -11 -17 -45 t-15 -54t-4.5 -39t3.5 -25q4 -7 17.5 -23t12.5 -26q-2 -10 -17.5 -19t-25.5 -9t-26.5 6.5t-21.5 19.5q-5 14 -5.5 34.5t2.5 33.5q4 14 18.5 92.5t-0.5 137.5q-35 -16 -79.5 -18.5l-44.5 -2.5l-9 -39.5t-21 -69.5q-4 -8 -4.5 -46.5t-0.5 -69.5t7.5 -68l7.5 -37l9.5 -9.5 t7.5 -23.5q-2 -13 -16.5 -20.5t-29.5 -7.5t-31 10.5t-16 29.5q0 18 2 54.5t0 67.5q-1 31 -1.5 52.5t-5.5 41.5q-5 19 -16 63t-12 83q-5 0 -9 2.5l-4 2.5l-18.5 -21t-35.5 -37q2 -10 6.5 -25.5t4.5 -19.5q0 -5 4 -8.5t11 -6.5t23 -13.5t15 -22.5t-23.5 -14t-46.5 9 q-6 3 -21.5 51.5t-17.5 57.5q-3 9 -4.5 15.5t2.5 14.5q3 8 10 29t6 36q-2 15 -23.5 33t-40.5 18q-14 0 -34 -16.5t-36 -29.5q-19 -15 -38 -33t-24 -22q-6 -4 -38.5 -63t-41.5 -82q-3 -10 -14.5 -42t-49.5 -31q-17 2 -22.5 20t43.5 52q12 28 25.5 53.5t14.5 31.5t13.5 68 t34.5 131q21 70 46.5 105t31.5 40q5 3 7 5.5t-3 5.5t-38 47.5t-24 137.5q2 11 6 6.5t7 -28.5q3 -25 24 -71t65 -64q5 -2 53.5 16t209.5 30q1 28 4.5 53l3.5 25l-8 8.5t-10 25.5q-5 -8 -9 -11t-11 -2q-7 2 -7.5 28t0.5 50q2 24 22 34.5t30 12.5q14 7 26 7h12l28 15t97 4v0z " />
<glyph unicode="X" d="M892 644q0 -62 -44.5 -106t-106.5 -44t-106 44t-44 106q0 63 44 107t106 44t106.5 -44t44.5 -107v0zM0 165l58 -23q15 -71 72 -118t133 -47q40 0 76.5 14.5t64.5 40t45.5 60t21.5 74.5l269 197q59 0 110 22t89 60t60 89t22 109q0 59 -22 110t-60 89t-89.5 60t-109.5 22 t-108.5 -21.5t-89 -59.5t-60.5 -88.5t-23 -108.5l-175 -251q-5 1 -10.5 1h-10.5q-30 0 -57 -7.5t-51 -21.5l-155 63v-265v0zM740 832q78 0 133.5 -55.5t55.5 -133.5t-55.5 -133t-133.5 -55t-133 55t-55 133t55 133.5t133 55.5v0zM263 341q64 0 109 -45t45 -110 q0 -64 -45 -109t-109 -45q-45 0 -81.5 23t-55.5 59q19 -7 38 -15t38 -15q47 -19 94 1t66 67t-1 93.5t-67 65.5l-65 26q8 2 16.5 3t17.5 1v0z" />
<glyph unicode="Y" d="M508 771v-1v0.5v0.5q77 55 138.5 73.5t104.5 18.5t66 -9.5l23 -9.5q-33 29 -71.5 51.5t-80.5 38.5t-87.5 24.5t-92.5 8.5q-48 0 -93 -8.5t-87 -24.5t-80.5 -38.5t-71.5 -51.5l23 9.5t66 9.5t104.5 -18t138.5 -74v0zM374 672q-113 69 -176.5 100.5l-63.5 31.5 q-32 -34 -57.5 -74t-43.5 -84t-27.5 -92t-9.5 -99q0 -45 7.5 -88t22 -83.5t35.5 -77.5t47 -70l-5.5 35t12.5 103t75.5 168t183.5 230v0zM1020 455q0 51 -9.5 99t-27 92t-43 84t-57.5 74l-63.5 -31.5t-176.5 -100.5q126 -130 183 -230t75.5 -168t12.5 -103l-6 -35 q27 33 47.5 70t35 77.5t22 83.5t7.5 88v0zM506 561q-107 -79 -177.5 -160.5t-113 -147.5t-60 -108l-17.5 -42q35 -37 76.5 -66t88.5 -49.5t98.5 -32t106.5 -11.5t106.5 11.5t98.5 32t88.5 50t76.5 65.5l-13.5 38.5t-53.5 102.5t-113 146.5t-192 170.5v0z" />
<glyph unicode="Z" d="M-1 80l421 -55v395h-423zM-3 471h423v411l-421 -61zM461 19l563 -77v478h-563v-401zM461 889v-418h563v494z" />
<glyph unicode="[" d="M964 372q-23 53 -51 89t-52 45q1 3 1 6.5v7.5q0 20 -5.5 39t-14.5 34v2.5v2.5q0 9 -2.5 18t-5.5 16q-3 69 -26.5 129.5t-65 105t-99.5 70.5t-131 26t-131 -26t-99.5 -70.5t-65 -105t-26.5 -129.5q-4 -7 -6 -16t-2 -18v-3v-2q-9 -16 -14.5 -34.5t-5.5 -38.5v-7.5v-6.5 q-23 -9 -51 -45.5t-50 -89.5q-29 -67 -33 -123.5t19 -68.5q16 -8 39 9t46 52q10 -38 32 -72t55 -61q-35 -13 -55.5 -32.5t-20.5 -43.5q0 -38 53 -65t127 -27q68 0 118 22t60 56h11h11q10 -34 60.5 -56t117.5 -22q74 0 127 27t53 65q0 24 -20.5 43.5t-54.5 32.5 q32 27 54.5 61t31.5 72q23 -35 46 -52t39 -9q23 12 19 68.5t-32 124.5v0zM421 633q-42 5 -51 61t11 92q6 12 18 21t28 9q26 0 41 -28.5t16 -61.5q1 -32 -15 -64t-48 -29v0zM612 633q-5 -2 -12.5 -2.5t-14.5 1.5q-38 11 -45.5 66t12.5 89q6 11 16 20t25 10q2 1 8.5 0.5 t10.5 -1.5q46 -18 45 -92.5t-45 -90.5v0zM598 751q-11 6 -20.5 -1t-13.5 -16q-2 -7 -2.5 -16.5t9.5 -10.5q6 4 7 16t10 10q8 -1 8 -14t14 -11q5 12 0.5 25.5t-12.5 17.5v0zM453 761q-23 -3 -22 -38t23 -37q22 -1 23 38.5t-24 36.5v0z" />
<glyph unicode="\" d="M0 947h1024v-113h-1024v113v0zM838 297h101v429h-853v-429h90l76 -245h-252v-97h1024v97h-257l71 245v0zM257 615h516v-205h-516v205v0zM623 52h-227l-77 245h375l-71 -245v0z" />
<glyph unicode="]" d="M774 937q-6 0 -12 -4t-12 -4q-17 0 -32.5 -9.5t-31.5 -7.5q-14 3 -29 -14t-33 -17h-6q-4 0 -8 19t-6 20q-40 -53 -68 -114.5t-49 -128t-38 -137.5t-35 -145q-20 35 -38.5 72.5t-36.5 74.5q-32 64 -65.5 128.5t-70.5 117.5q-10 1 -20.5 1.5t-19.5 0.5q-43 0 -82 -6.5 t-76 -17.5l-2 -131q-2 -85 -3 -164t3 -154t15 -146.5t32 -140.5l16 -2t16 -1q51 0 93 18.5t62 28.5q3 43 -1 79t-10 72q-3 18 -3.5 37.5t8.5 43.5q30 -38 56.5 -79.5t52.5 -84.5q17 -27 33 -52.5t28 -49.5q9 0 17 -0.5t16 -0.5q20 0 38 2l36 4q18 3 36.5 5t39.5 2l16 -6 q23 52 28 124.5t6 146.5q1 68 7 135t37 120q16 -76 35.5 -151.5t42.5 -150.5t49 -150t56 -151q21 3 43.5 9t43.5 13q16 5 30 9t26 4q6 0 11 -2.5t9 -5.5q-18 49 -32.5 100.5t-27.5 105t-24.5 107.5t-22.5 108q-14 70 -29 139t-32 135.5t-37 128.5t-45 117v0z" />
<glyph unicode="^" d="M1023 279q-8 36 -63 56.5t-144 26.5q-64 5 -126.5 -7.5t-124.5 -33.5l-13 -4v361q0 23 32 22t32 -27v-283q97 -28 147 14t51 150q0 46 -14.5 82.5t-42.5 65t-68.5 48.5t-91.5 34l-210 56v-430l-65 -22l65 -20v-108l-154 -51q-38 -14 -60 6.5t13 33.5l38 13l-142 45 q-33 -11 -58.5 -34t-23.5 -56q2 -34 63.5 -46.5t121.5 -22.5q55 -9 105.5 -4.5t96.5 20.5v47v-96l165 -53v3l1 -3l144 50l240 84l-156 49l-229 -79v55l147 50l86 29q67 12 85.5 -4t-46.5 -36l-43 -15l156 -49l3 1q47 17 67.5 38.5t15.5 43.5v0zM82 307l142 -45l163 59v47 l-65 20l-237 -80l-1 -0.5t-2 -0.5v0z" />
<glyph unicode="_" d="M888 642q-26 0 -44.5 -18.5t-18.5 -45.5v-247q0 -26 18.5 -44.5t44.5 -18.5t44 18.5t18 44.5v247q0 27 -18 45.5t-44 18.5v0zM136 642q-26 0 -44 -18.5t-18 -45.5v-247q0 -26 18 -44.5t44 -18.5t44.5 18.5t18.5 44.5v247q0 27 -18.5 45.5t-44.5 18.5v0zM236 640v-452 q0 -20 14.5 -34.5t34.5 -14.5h55v-137q0 -26 18.5 -44.5t43.5 -18.5q26 0 44.5 18.5t18.5 44.5v137h97v-137q0 -26 18 -44.5t44 -18.5t44 18.5t18 44.5v137h56q20 0 34 14.5t14 34.5v452h-554v0zM643 874l52 74q2 4 1.5 7.5t-3.5 5.5t-6.5 1t-6.5 -4l-53 -77 q-26 10 -55 15.5t-60 5.5t-60 -5.5t-55 -15.5l-53 77q-3 3 -6.5 4t-6.5 -1t-3.5 -6t1.5 -7l52 -74q-61 -29 -101 -80t-45 -114h554q-5 63 -45 114t-101 80v0zM395 757q-13 0 -22 9t-9 21q0 13 9 22t22 9t22 -9t9 -22q0 -12 -9 -21t-22 -9v0zM633 757q-13 0 -22 9t-9 21 q0 13 9 22t22 9q12 0 21 -9t9 -22q0 -12 -9 -21t-21 -9v0z" />
<glyph unicode="`" d="M522 908q14 0 43.5 -4t63.5 -19t68 -45t57 -82q16 -34 15.5 -90t-3.5 -106q-1 -8 -1.5 -15.5t-0.5 -15.5l-1 -4l3 -3q1 -1 9.5 -7t26.5 -6h1q11 0 24.5 3.5t27.5 10.5q2 1 5 1.5t6 0.5t6.5 -0.5t6.5 -1.5l1 -1q7 -2 12 -6.5t5 -9.5q0 -2 -6 -10.5t-32 -18.5 q-3 -1 -6.5 -2.5t-7.5 -2.5q-17 -5 -39 -15t-31 -31q-5 -12 -3.5 -26t9.5 -29q1 -4 14.5 -29.5t40.5 -56.5t67.5 -59.5t96.5 -38.5v-0.5t-1 -1.5q-1 -4 -22 -17t-96 -25q-12 -2 -16.5 -13.5t-7.5 -26.5q-1 -6 -2.5 -11.5t-2.5 -11.5l-1.5 -1.5t-2.5 -0.5h-0.5h-0.5 q-3 0 -8 0.5t-11 1.5q-10 2 -25 4t-33 2q-11 0 -21.5 -0.5t-21.5 -2.5q-22 -4 -41.5 -16t-39.5 -25q-27 -19 -56.5 -35t-71.5 -16h-3.5h-3.5h-1h-2h-2q-42 0 -71.5 16t-56.5 35q-20 14 -39.5 25.5t-42.5 15.5q-10 2 -21 2.5t-21 0.5q-19 0 -33.5 -2t-24.5 -4q-6 -1 -11 -2 t-8 -1t-3.5 0.5t-1.5 2.5q-2 6 -3 11.5t-3 10.5q-3 15 -7.5 27t-15.5 14q-75 11 -96 24t-23 18v0.5v1.5q55 9 96 37.5t67.5 59.5t40 57t15.5 30q8 15 9 29t-4 25q-9 21 -30.5 31t-39.5 16q-4 1 -7.5 2t-5.5 2q-23 9 -31 17.5t-7 13.5q1 7 10 12t19 5h3.5t3.5 -1 q15 -7 29 -11t27 -4q19 0 28 6.5t10 7.5l3 3v4q-1 8 -1 15.5t-1 15.5q-3 50 -3.5 106t14.5 90q24 52 57.5 82t67.5 45t63.5 19t44.5 4h9.5h8.5h0.5h1.5v0zM522 932v0h-1.5h-1.5h-10h-7q-17 0 -49 -4.5t-68 -20.5q-21 -9 -40 -21.5t-35 -28.5q-19 -18 -35 -40.5t-28 -48.5 q-17 -39 -16.5 -97t3.5 -110v-1q1 -5 1 -11t1 -11q-3 -2 -7 -2.5t-10 -0.5q-10 0 -21.5 3t-24.5 9q-4 2 -8 2.5t-9 0.5q-8 0 -16 -2t-15 -6q-9 -6 -14.5 -13t-7.5 -15q-1 -6 1 -15.5t14 -20.5q7 -6 16.5 -11.5t21.5 -10.5q3 -1 7 -2.5t8 -2.5q14 -5 32 -12.5t23 -20.5 q3 -7 2 -15.5t-7 -19.5v-0.5v-0.5q-2 -3 -14.5 -27t-37.5 -53q-14 -17 -30 -30.5t-32 -24.5q-21 -13 -43 -22t-45 -12q-9 -2 -14.5 -9t-5.5 -16q0 -3 1 -5.5t2 -5.5v0v0q3 -8 11.5 -15.5t22.5 -14.5q17 -7 42.5 -14t57.5 -12q2 -3 3.5 -9.5t3.5 -12.5q1 -6 2.5 -12t2.5 -12 q2 -7 8.5 -13.5t19.5 -6.5q5 0 11 1l12 2q10 2 23.5 4t30.5 2q10 0 19.5 -0.5t19.5 -2.5q19 -3 36 -13.5t35 -23.5q28 -19 61 -37t81 -18h2.5h2.5h3h4q48 0 81 17.5t61 37.5v0q19 13 36 23.5t36 13.5q9 2 19 2.5t19 0.5q16 0 29 -1.5t25 -3.5q7 -2 13 -2.5t10 -0.5h1 q10 0 17 5t10 14q2 7 3 12.5t3 11.5q1 5 2.5 12t3.5 10q33 5 58 11.5t42 14.5q14 7 22.5 14t12.5 16q1 3 1.5 5.5t0.5 5.5q0 9 -5.5 16t-14.5 9q-51 8 -88.5 34.5t-62.5 55.5t-37 53l-13 26l-0.5 0.5l-0.5 0.5q-5 11 -6.5 19.5t1.5 15.5q6 13 23.5 20.5t31.5 12.5q5 1 8.5 2 t6.5 3q14 5 24 11t17 13q8 8 10.5 15.5t2.5 12.5q-1 12 -9.5 22.5t-23.5 15.5q-5 3 -11 4t-12 1q-4 0 -9.5 -1t-10.5 -4q-12 -5 -23 -8t-20 -4q-5 1 -8.5 1.5t-5.5 1.5q0 5 0.5 10t0.5 10v3q4 52 4 110.5t-17 96.5q-12 27 -27.5 49.5t-35.5 40.5q-15 16 -33.5 28.5 t-39.5 21.5q-37 16 -68.5 20.5t-48.5 4.5v0z" />
<glyph unicode="a" d="M919 659q0 -6 0.5 -13t0.5 -14q0 -104 -39 -210.5t-115 -192.5t-187.5 -140.5t-256.5 -54.5q-44 0 -87 6.5t-83.5 18.5t-78.5 30t-73 40q12 -2 24.5 -2.5t25.5 -0.5q74 0 140.5 24t120.5 66q-69 1 -122.5 42t-73.5 104q9 -2 19 -3t20 -1q15 0 28.5 2t27.5 5 q-72 15 -120.5 72.5t-48.5 133.5v1.5v1.5q21 -12 45 -18.5t50 -7.5q-42 28 -67.5 74t-25.5 101q0 28 7.5 55t20.5 50q39 -47 87 -86t103 -67.5t116.5 -45.5t126.5 -20q-2 11 -3.5 23t-1.5 25q0 43 16.5 81.5t45 67t66.5 45t82 16.5q45 0 85 -18t68 -49q36 7 69.5 20t64.5 31 q-12 -36 -36 -66t-57 -50q32 4 62.5 12.5t58.5 20.5q-21 -31 -47.5 -58.5t-57.5 -50.5v0z" />
<glyph unicode="b" d="M591 -61v467h157l24 182h-181v116q0 39 17 64t73 25h97v162q-13 2 -52 5t-89 3q-52 0 -95 -16t-74 -46.5t-48 -75.5t-17 -103v-134h-157v-182h157v-467h188v0z" />
<glyph unicode="c" d="M328 512v-64v-64h89.5h89.5q-5 -31 -22.5 -57.5t-43.5 -43.5q-16 -11 -34.5 -18.5t-37.5 -10.5t-39 -3.5t-39 3.5q-20 4 -38.5 12t-34.5 20q-26 18 -45.5 44t-30.5 57q-10 30 -10 63.5t11 63.5q7 22 19 42t28 36q20 20 45 34t53 20q24 5 48.5 4t48.5 -8q19 -6 37 -16.5 t33 -24.5q15 15 30.5 30t30.5 30l16 16l16 16q-23 22 -50 38.5t-56 27.5q-53 19 -110.5 19.5t-110.5 -17.5q-60 -21 -109 -63.5t-77 -99.5q-10 -20 -17 -40.5t-12 -42.5q-10 -53 -3 -108t32 -104q16 -32 38.5 -59.5t50.5 -49.5q26 -21 56.5 -36.5t62.5 -24.5q41 -11 84 -11 t84 10q38 8 72 26t63 44q29 27 50 62t33 74q12 42 14 86.5t-6 87.5h-154.5h-154.5v0zM1024 505h-112v112h-82v-112h-113v-82h113v-112h82v112h112v82z" />
<glyph unicode="d" d="M339 570q0 33 8.5 61t25.5 50q17 23 38 34.5t45 11.5q20 0 35 -6.5t25 -19.5q11 -13 16.5 -29.5t5.5 -36.5q0 -12 -2.5 -27t-6.5 -32q-5 -18 -10.5 -38t-13.5 -44q-7 -23 -12.5 -41.5t-8.5 -32.5q-6 -24 -1 -44.5t19 -38.5q15 -17 34.5 -25.5t43.5 -8.5q42 0 77 23.5 t62 70.5t40.5 104.5t13.5 124.5q0 51 -17 93t-50 75q-33 32 -79.5 48.5t-106.5 16.5q-67 0 -121 -21.5t-95 -64.5q-42 -42 -62.5 -93.5t-20.5 -111.5q0 -35 10 -65t30 -55q7 -7 9 -15.5t0 -17.5q-2 -7 -5 -19.5t-7 -29.5q-2 -6 -5 -9.5t-7 -5.5t-9 -2t-10 2q-31 12 -54 34 t-39 54q-16 31 -24 67t-8 77q0 26 4.5 52.5t13.5 53.5q8 26 21.5 51.5t31.5 50.5t39.5 46.5t46.5 41.5q25 19 55.5 34t66.5 27q36 11 75 17t81 6t81.5 -7.5t75.5 -22.5q37 -14 67.5 -33.5t54.5 -43.5q25 -24 44.5 -52t33.5 -59q14 -32 21 -64.5t7 -65.5q0 -91 -23 -165.5 t-69 -133.5t-105 -88.5t-131 -29.5q-24 0 -46.5 5.5t-43.5 16.5t-36 24.5t-23 29.5q-18 -70 -28.5 -112t-14.5 -55q-9 -36 -30.5 -78t-55.5 -90h-42q-6 61 -5 112t11 91l78 331q-9 20 -14 44t-5 53v0z" />
<glyph unicode="e" d="M789 963h-75h-170h-184h-117q-57 0 -77.5 -33t-20.5 -60v-150.5v-296.5v-290v-131q0 -30 12.5 -43t21.5 -17q9 -3 30 -3t36 17l40 47t89 103.5t90 104t43 49.5q5 5 6.5 6t6.5 1h68.5h98.5q53 0 68 28.5t21 50.5q2 9 14.5 70.5t28 140t31 156t23.5 119.5q13 64 -5.5 97.5 t-78.5 33.5v0zM776 346q2 9 14.5 70.5t28 140t31 156t23.5 119.5zM757 815l-23 -120q-2 -9 -12.5 -17.5t-21.5 -8.5h-40h-72.5h-69.5h-31q-18 0 -29.5 -11.5t-11.5 -28.5v-27q0 -17 11.5 -28.5t29.5 -11.5h26h58h61h35q13 0 23 -11.5t7 -25.5q-2 -14 -11.5 -62t-11.5 -55 q-1 -8 -9.5 -17.5t-23.5 -9.5h-80h-67q-21 0 -30.5 -4.5t-22.5 -21.5q-7 -8 -36 -43t-61 -73.5t-57.5 -69l-25.5 -30.5q-1 -2 -2 -1.5t-1 1.5v678q0 11 9 22t24 11h66h147h150h75q13 0 22 -10t6 -25v0z" />
<glyph unicode="f" d="M994 640q-14 -2 -56.5 -11t-60.5 -13q-10 -3 -54 -34.5t-93.5 -72t-91.5 -79.5t-48 -56q-3 -12 -4 -29t-1 -35l-2 -37q0 -20 4 -48t7 -45q12 -3 74.5 -2t78.5 -2l-2 -48q-8 1 -36.5 1h-66h-78h-72.5t-111 -2t-111 -1l8 45q17 2 70.5 2t69.5 16q8 9 7.5 24t-0.5 63v31 q0 10 -0.5 28.5t-2.5 37.5q-4 10 -40 58t-82.5 104.5t-91.5 107.5t-65 67q-12 4 -67.5 10.5t-74.5 10.5l-1 41q9 5 80 2t152 0q27 1 67.5 1.5t79.5 0t69.5 -1.5t37.5 -2l-5 -36q-16 -4 -73.5 -6.5t-77.5 -8.5q26 -38 58 -80.5t62.5 -82t56 -72.5t38.5 -52q7 10 38 35 t65.5 54t63 56t30.5 42q-20 4 -69.5 11.5t-59.5 7.5l-9 46q18 3 93 1.5t122 -1.5h110.5t94.5 -3l-30 -43v0z" />
<glyph unicode="g" d="M988 342q5 25 8 51t3 52q0 100 -38 187.5t-103 153t-153 103.5t-188 38q-21 0 -41.5 -2t-40.5 -5q-32 20 -70 31.5t-79 11.5q-57 0 -108 -22t-89 -60t-60 -89t-22 -109q0 -38 10 -74t29 -67q-5 -23 -7.5 -47.5t-2.5 -49.5q0 -100 37.5 -187.5t103 -153t153.5 -103 t187 -37.5q23 0 45 2t44 6q29 -16 62.5 -24.5t69.5 -8.5q57 0 108 21.5t89 59.5t60 89t22 109q0 33 -7.5 64.5t-21.5 59.5v0zM761 216q-17 -23 -41.5 -42t-56.5 -32t-70 -19.5t-81 -6.5q-52 0 -95 9t-77 27q-24 13 -44 30.5t-35 39.5q-16 22 -23.5 44t-7.5 43q0 14 5 25 t15 21q10 9 22.5 13.5t27.5 4.5q12 0 23 -3.5t19 -10.5q9 -7 16 -17.5t13 -24.5t13 -26.5t14 -22.5q7 -9 17.5 -17t23.5 -14t30.5 -9t39.5 -3q30 0 54 6t43 19q18 12 26.5 27t8.5 33q0 14 -4.5 25.5t-13.5 20.5q-10 9 -23 16t-29 12t-38 10.5t-50 11.5q-37 8 -69 17.5 t-57 20.5q-26 11 -47 26t-36 34q-15 20 -23 44t-8 53q0 27 8 51.5t25 45.5q16 21 39.5 37.5t53.5 27.5t65.5 16.5t75.5 5.5q33 0 61 -3.5t52 -10.5q24 -8 44 -18t35 -22q16 -12 28 -25.5t19 -27.5q8 -14 11.5 -27.5t3.5 -27.5q0 -13 -5 -24.5t-15 -21.5q-9 -10 -21.5 -15.5 t-27.5 -5.5q-13 0 -23.5 3.5t-18.5 9.5q-6 6 -13 15.5t-15 22.5q-9 18 -20 31t-23 23q-13 9 -33 13.5t-48 4.5q-26 0 -47 -5t-36 -15t-22.5 -21.5t-7.5 -24.5q0 -9 2.5 -15.5t6.5 -12.5q6 -7 13 -12.5t16 -9.5q10 -5 19.5 -8.5t19.5 -6.5t26.5 -7t40.5 -9q29 -7 55.5 -14 t50.5 -14q24 -8 44.5 -17.5t37.5 -20.5q18 -11 31.5 -25.5t23.5 -31.5q9 -18 14 -39t5 -46q0 -30 -8.5 -57t-24.5 -51v0z" />
<glyph unicode="h" d="M210 861q8 12 19 17.5l11 5.5l202 75q6 1 15.5 3.5t31.5 -11.5q15 -8 19.5 -31l4.5 -23l2 -346l-6 -21.5t-27 -26.5q-20 -5 -33.5 5l-13.5 10l-210 285l-13 20t-2 38v0zM103 270q-5 11 -5 27.5v16.5l14 174q1 8 7.5 17t15.5 14q12 7 30 1.5l18 -5.5l217 -109l16 -11.5 t16 -31.5q-1 -27 -11 -32.5t-17 -10.5l-253 -56l-19.5 -4t-28.5 10v0zM494 -59q-12 -4 -24.5 -2.5l-12.5 1.5l-170 54q-9 4 -15 11t-10 19q-4 14 6 30.5l10 16.5l169 186l16 10t32 2q15 -8 18 -21.5l3 -13.5l-4 -252l-1 -18.5t-17 -22.5v0zM597 460l137 216l10 13.5t28 11.5 q15 -1 23 -10l8 -9l116 -136l4.5 -13.5t0.5 -26.5q-3 -13 -20.5 -22l-17.5 -9l-243 -71l-18.5 -0.5t-27.5 15.5q-9 14 -4.5 27.5l4.5 13.5v0zM916 176l-103 -147l-11.5 -7.5t-25.5 -7.5t-27 14.5l-13 14.5l-130 217l-5 18t8 31q12 12 26 11l14 -1l243 -78l17.5 -6.5 t17.5 -23.5q-1 -12 -6 -23.5l-5 -11.5v0z" />
<glyph unicode="i" d="M642 649q13 -68 0.5 -121t-42.5 -86.5t-74.5 -46t-96.5 2.5q75 122 72 192.5t-30.5 123.5t-52 106.5t8.5 142.5q-51 -37 -100 -102.5t-87.5 -144t-62 -163t-23.5 -159.5q0 -104 26 -188t71.5 -143t108 -91.5t135.5 -32.5q71 -1 138.5 29.5t120 81t84.5 115t32 131.5 q0 77 -19 132t-50.5 95.5t-73 70t-85.5 55.5v0zM495 9q-73 -2 -134.5 34.5t-92.5 102.5t-22.5 158.5t76.5 202.5q-14 -64 -4.5 -118.5t34 -94.5t59.5 -63t72 -23q41 0 74.5 18t59 50t43.5 75.5t30 93.5q66 -50 85 -124t-7 -142.5t-95 -118t-178 -51.5v0z" />
<glyph unicode="j" d="M765 438q-10 12 -27.5 18t-43.5 6q-32 0 -55 -9.5t-36 -28.5q-14 -19 -20.5 -46t-6.5 -61v-350q0 -5 -2 -9.5t-6 -8.5q-3 -4 -8 -5.5t-10 -1.5h-183q-5 0 -9.5 1.5t-8.5 5.5t-6 8.5t-2 9.5v645q0 5 2 9.5t6 8.5t8.5 6t9.5 2h177q5 0 9 -1t7 -3t5 -5t3 -8t1.5 -8.5 t0.5 -5.5v-5.5v-10.5q35 32 80.5 48t102.5 16q63 0 113 -16t86 -47q36 -32 54 -79.5t18 -109.5v-435q0 -6 -2 -10.5t-6 -8.5t-8.5 -5.5t-9.5 -1.5h-187q-5 0 -9.5 1.5t-8.5 5.5t-6 8.5t-2 10.5v392q0 27 -5 46t-15 32v0zM212 748q-19 -18 -40.5 -27t-47.5 -9t-47.5 9 t-40.5 27q-18 18 -27 40t-9 48q0 25 9 47t27 40q19 18 40.5 27.5t47.5 9.5t47.5 -9.5t40.5 -27.5q18 -18 27 -40t9 -47q0 -26 -9 -48t-27 -40v0zM241 612v-645q0 -5 -2 -9.5t-5 -8.5q-4 -4 -8.5 -5.5t-10.5 -1.5h-182q-6 0 -10.5 1.5t-8.5 5.5q-3 4 -5 8.5t-2 9.5v645 q0 5 2 9.5t5 8.5q4 4 8.5 6t10.5 2h182q6 0 10.5 -2t8.5 -6q3 -4 5 -8.5t2 -9.5v0z" />
<glyph unicode="k" d="M199 162q18 -33 42.5 -58.5t55.5 -43.5q20 -12 42.5 -19.5t45.5 -11.5q99 39 147.5 138.5t67.5 206t18 192t-2 94.5q-4 12 -14.5 40.5t-28.5 69t-42.5 90t-56.5 103.5l19 -16t44 -52t48 -93.5t31 -139.5v-0.5v-1.5l1.5 -4.5l0.5 -1.5q58 -156 37 -273.5t-70 -196.5 t-99.5 -119l-50.5 -40q36 0 69.5 9t64.5 26q31 18 55.5 43.5t42.5 58.5t27 68.5t9 73.5q0 31 -5.5 59.5t-16.5 54.5q19 4 40.5 12t44.5 22q14 -33 21 -70t7 -76q0 -74 -25.5 -138t-75.5 -119q-51 -55 -116 -82.5t-144 -27.5q-80 0 -145 27.5t-115 82.5q-51 55 -76 119 t-25 138q0 73 24 136.5t71 116.5q53 59 119.5 88.5t146.5 29.5q34 0 65 -5t60 -16q-9 -18 -16.5 -40t-10.5 -46q-22 9 -47 14t-51 5q-56 0 -103.5 -21t-87.5 -62q-40 -42 -60 -92.5t-20 -109.5q0 -38 9 -73.5t28 -68.5v0zM673 574l32.5 19t72 49t73 67t36.5 73l-12.5 -22.5 t-40.5 -53t-73 -61t-110 -44.5l-21.5 59t38.5 119l24 18t84 33l45.5 20t78.5 89l13 -22t24.5 -61t14.5 -92t-18 -115l-20.5 -41.5t-63.5 -66.5q-32 -20 -78.5 -18.5t-98.5 51.5v0zM434 25h-0.5h-1.5l0.5 -0.5l0.5 -0.5l0.5 0.5l0.5 0.5v0z" />
<glyph unicode="l" d="M246 245h-147q-7 0 -12 3t-8 7q-3 5 -3 11t3 12l157 277v0v1l-100 172q-3 7 -3 12.5t2 10.5q3 5 8.5 7t12.5 2h147q17 0 26.5 -9t14.5 -18l16 -27.5t35 -61t35 -61l16 -27.5q-2 -4 -27.5 -48.5t-54.5 -96.5t-53 -94.5l-24 -42.5q-6 -11 -15 -20t-26 -9v0zM945 930 l-327 -578q-1 0 -1 -0.5t1 -0.5l208 -380q3 -6 3 -12t-3 -11t-8 -7t-11 -2h-148q-17 0 -26.5 9t-14.5 19l-33 60t-72 132t-72 132t-33 61q4 7 55.5 98.5t112.5 199.5t111 196l50 88q5 11 14 20t25 9h149q7 0 12 -2.5t8 -7.5t3 -11t-3 -12v0z" />
<glyph unicode="m" d="M845 406q74 0 126.5 -52.5t52.5 -126.5v-57.5v-32.5h-357v32.5v57.5q0 74 52 126.5t126 52.5v0zM681 600q0 68 48 116t116 48t116 -48t48 -116t-48 -116t-116 -48t-116 48t-48 116v0zM476 376q66 0 112.5 -46.5t46.5 -112.5v-51v-29h-318v29v51q0 66 46.5 112.5 t112.5 46.5v0zM329 555q0 61 43 104t104 43t104 -43t43 -104t-43 -104t-104 -43t-104 43t-43 104v0zM143 352q59 0 101 -42t42 -101v-46v-26h-286v26v46q0 59 42 101t101 42v0zM11 513q0 55 38.5 93.5t93.5 38.5t93.5 -38.5t38.5 -93.5t-38.5 -93.5t-93.5 -38.5t-93.5 38.5 t-38.5 93.5v0z" />
<glyph unicode="n" d="M20 287h-20v123h20v-123v0zM72 246h-21v194h21v-194v0zM113 236h-21v225h21v-225v0zM154 225h-21v226h21v-226v0zM205 225h-21v297h21v-297v0zM246 225h-21v338h21v-338v0zM297 225h-21v359h21v-359v0zM338 225h-21v369h21v-369v0zM389 225h-20v359h20v-359v0zM430 225 h-20v348h20v-348v0zM471 225h-20v389h20v-389v0zM522 225h-20v420h20v-420v0zM898 228h-55h-121h-120.5h-54.5q-6 1 -10.5 5t-4.5 10v400q0 6 3 9.5t11 5.5q18 7 38.5 11t41.5 4q44 0 83 -15.5t68.5 -43t48.5 -64.5t23 -80q11 5 23.5 7.5t25.5 2.5q52 0 89 -37t37 -89 t-36.5 -89t-89.5 -37v0z" />
<glyph unicode="o" d="M827 133q-10 -16 -28 -20.5t-34 5.5q-63 39 -134.5 62.5t-150.5 32t-166 2.5t-181 -28q-18 -4 -33.5 6t-19.5 28q-5 18 5 34t28 20q103 23 198.5 30t183 -3.5t167 -37t150.5 -69.5q16 -10 20 -28t-5 -34v0zM915 329q-12 -20 -35 -25.5t-42 6.5q-73 45 -162 73.5 t-183.5 39.5t-190 4t-181.5 -33q-22 -7 -42.5 4t-27.5 33q-7 23 4 43.5t33 26.5q98 30 205.5 38t213.5 -4.5t206 -45t183 -83.5q20 -12 25.5 -35t-6.5 -42v0zM1015 556q-15 -24 -42 -31t-51 8q-87 51 -197 80t-224.5 38t-222.5 -0.5t-191 -34.5q-27 -8 -51.5 5t-32.5 40 q-8 26 5 50.5t40 33.5q95 28 217 39t250 0.5t252 -43.5t224 -93q24 -14 31 -41t-7 -51v0z" />
<glyph unicode="p" d="M512 963q-106 0 -199.5 -40.5t-163 -110t-109.5 -162.5t-40 -199t40 -199.5t109.5 -163t163 -109.5t199.5 -40t199.5 40t163 109.5t109.5 163t40 199.5t-40 199t-109.5 162.5t-163 110t-199.5 40.5v0zM813 348q-29 12 -52.5 35t-41.5 48l-42 56t-44 55q-21 25 -44.5 48.5 t-47.5 45.5q-25 22 -52.5 41.5t-56.5 34.5q-20 9 -41 16.5t-42 13.5q-2 1 -7 2.5t-7 -1.5q-2 -2 -1.5 -5t1.5 -5q0 -4 0.5 -8.5t1.5 -8.5q6 -53 6 -107.5t-16 -106.5q-9 -27 -25 -52t-37 -44q-18 -16 -42 -29.5t-49 -12.5q-5 0 -9.5 1t-9.5 2q-27 9 -32.5 34t-5.5 49 q0 26 3 51.5t9 50.5q2 7 4.5 14.5t5.5 15.5q14 43 38 81t55.5 70t69.5 56.5t81 39.5q32 11 65.5 17t67.5 6q50 0 98 -12.5t91.5 -35.5t80 -56.5t64.5 -74.5q13 -21 24 -43.5t20 -45.5h-1q3 -8 5.5 -16t4.5 -15q6 -25 9 -51t3 -52q0 -48 -20.5 -87.5t-81.5 -14.5v0z" />
<glyph unicode="q" d="M780 166q-76 0 -129 16t-88.5 44t-57.5 65.5t-36 79.5l-37 118q-21 64 -54 108t-111 44q-53 0 -98.5 -44t-45.5 -152q0 -84 39 -133.5t100 -49.5q68 0 110 34l42 34l38 -102l-48.5 -31t-147.5 -31q-62 0 -109.5 18t-80 52.5t-49.5 86t-17 118.5q0 69 17 123.5t50.5 92.5 t82.5 58t114 20q58 0 103 -11t79 -36t58.5 -65t43.5 -97l38 -117q22 -64 65 -106t131 -42q60 0 91 14.5t31 46.5q0 26 -17.5 44t-61.5 29l-80 19q-73 17 -104.5 55t-31.5 98q0 96 64.5 132t144.5 36q89 0 141.5 -35t59.5 -114l-117 -14q-4 38 -26.5 55t-64.5 17 q-39 0 -61.5 -17t-22.5 -47q0 -26 14 -42.5t53 -25.5l75 -16q76 -18 115.5 -57.5t39.5 -110.5q0 -88 -67.5 -125t-176.5 -37v0z" />
<glyph unicode="r" d="M1014 655l-9 39.5t-32 62.5q-29 31 -58.5 36.5t-44.5 6.5q-53 4 -116 6t-116.5 3t-89.5 1.5l-36 0.5v0l-36 -0.5t-89.5 -1.5t-116.5 -3t-116 -6q-15 -1 -44.5 -6.5t-58.5 -36.5q-23 -23 -32 -62.5l-9 -39.5l-5 -51.5t-5 -113.5v-78q0 -62 5 -114l5 -52l9 -39t32 -62 q29 -31 62.5 -36t50.5 -8q31 -3 89 -5t115.5 -3.5t100.5 -2l43 -0.5l36 0.5t89.5 1.5t116.5 3t116 6q15 2 44.5 7.5t58.5 36.5q23 23 32 62l9 39l5 52t5 114v78q0 62 -5 113.5l-5 51.5v0zM650 442v0l-243 -125v287l277 -144l-34 -18v0z" />
<glyph unicode="s" d="M662 670q-18 0 -37 -4.5t-39 -12.5q19 62 46.5 108t63.5 76t81 44t98 12q79 -2 116 -53t33 -151q-2 -38 -16 -82t-40 -95.5t-64.5 -109.5t-88.5 -123q-53 -68 -101 -119t-92 -85t-84.5 -50.5t-76.5 -16.5q-44 0 -82 41t-69 124q-21 76 -41.5 151.5t-41.5 151.5 q-23 83 -47.5 124t-50.5 41q-6 0 -26 -12t-55 -36l-48 62q38 34 75.5 67t73.5 67q51 43 89 66t63 26q60 5 97 -35.5t50 -128.5q15 -94 25.5 -153t16.5 -82q17 -78 36 -117t40 -39q16 0 40 25.5t56 75.5q32 51 49.5 89.5t19.5 65.5q5 44 -12.5 66t-56.5 22v0z" />
<glyph unicode="t" d="M885 963l-217 -45v-321q-37 47 -88.5 70t-118.5 23q-69 0 -131.5 -25.5t-113.5 -75.5q-58 -56 -88 -126t-30 -149q0 -43 8 -83t24.5 -76.5t40.5 -69t56 -60.5q48 -43 105.5 -64.5t124.5 -21.5q66 0 118 19.5t100 66.5v-82h210v1020v0zM505 135q-83 0 -136.5 51.5 t-53.5 129.5q0 74 52.5 128t129.5 54q76 0 128 -53t52 -132q0 -76 -51 -127t-121 -51v0z" />
<glyph unicode="u" d="M729 809q-32 0 -52 -29.5t-20 -87.5q0 -59 18 -105t49 -77.5t72.5 -48t90.5 -16.5q17 0 35 2t41 7v-122q-31 -8 -64 -11t-60 -3q-32 -68 -74.5 -129.5t-84.5 -110t-78 -81.5t-55 -44q-24 -14 -48.5 -14t-51.5 16q-23 14 -75 63t-110.5 148t-113.5 256t-85 387h175 q16 -142 43.5 -250t62.5 -191t76.5 -146.5t85.5 -117.5q49 49 94.5 112.5t82.5 137.5q-44 22 -79 56.5t-59 78.5t-37 96t-13 109t16.5 106t47 85.5t75 56.5t100.5 20q55 0 97.5 -16.5t71 -48.5t43.5 -78t15 -105q0 -43 -9.5 -90t-26.5 -86q-82 -16 -115.5 16.5l-33.5 32.5 q7 20 13.5 51t6.5 62q0 55 -18.5 82t-48.5 27v0z" />
<glyph unicode="v" d="M232 218q-48 0 -90.5 18.5t-74 50t-49.5 73.5t-18 91q0 48 18 90t49.5 73.5t74 50t90.5 18.5t90.5 -18.5t74 -50t49.5 -73.5t18 -90q0 -49 -18 -91t-49.5 -73.5t-74 -50t-90.5 -18.5v0zM792 218q-48 0 -90.5 18.5t-74 50t-49.5 73.5t-18 91q0 48 18 90t49.5 73.5t74 50 t90.5 18.5t90.5 -18.5t74 -50t49.5 -73.5t18 -90q0 -49 -18 -91t-49.5 -73.5t-74 -50t-90.5 -18.5v0z" />
<glyph unicode="w" d="M675 318q-8 -8 -15.5 -16.5t-15.5 -15.5q-11 -11 -23 -22t-25 -20q-32 -23 -68.5 -30t-74.5 1t-64.5 31t-43.5 57q-1 1 -1.5 2.5t-1.5 3.5l-0.5 0.5l-0.5 0.5q-5 -8 -9.5 -16t-10.5 -15q-25 -35 -59.5 -52.5t-77.5 -18.5q-24 -1 -48 2.5t-46 13.5q-47 20 -68 56.5 t-22 77.5h48h48q1 -3 1.5 -5.5t1.5 -5.5q5 -21 17 -36t34 -21q24 -6 45 -1t38 24q22 23 24.5 58.5t-14.5 62.5q-19 28 -55 34t-63 -14l-8 -6t-6 -7q-5 -8 -12 -10t-16 -1h-33h-35q12 66 23.5 131.5t23.5 131.5h132.5h133.5v-38.5v-40.5h-5h-5h-88.5t-89.5 1q-5 0 -7 -2 t-3 -7q-4 -24 -8.5 -47.5t-8.5 -46.5v-2.5v-3.5q27 25 58.5 32t65.5 1q36 -6 60.5 -27.5t41.5 -52.5q2 4 3.5 7.5t3.5 6.5q24 48 67.5 70.5t96.5 15.5q33 -4 60.5 -18t50.5 -36q14 -13 27.5 -27.5t27.5 -29.5l2.5 2.5t2.5 3.5q15 15 28.5 30t28.5 29q20 18 43 30t50 16 q48 7 99 -12t75 -75q20 -45 19 -89.5t-23 -88.5q-20 -40 -54 -60t-78 -23q-35 -2 -66 8t-58 32q-15 12 -29 26.5t-29 28.5l-5 5l-7 7v0zM492 306q16 1 30 5t27 12q20 11 35.5 26t31.5 30q2 2 2 4t-2 4q-13 12 -25 23.5t-24 22.5q-11 10 -23.5 17t-26.5 12q-33 10 -60.5 -4.5 t-35.5 -47.5q-2 -5 -2.5 -10t-0.5 -10q-3 -37 18 -60.5t56 -23.5v0zM730 384q15 -14 29 -27t28 -25q16 -13 34.5 -19.5t38.5 -6.5q28 1 46 15.5t24 41.5q2 9 2 18.5t-1 18.5q-4 32 -27 50.5t-55 15.5q-20 -2 -36 -10.5t-30 -21.5q-13 -12 -26 -24.5t-27 -25.5v0z" />
<glyph unicode="x" d="M1023 856q-5 46 -39 76.5t-80 30.5h-196.5h-196.5h-196.5t-196.5 -1h-10.5t-10.5 -1q-44 -9 -70.5 -41.5t-26.5 -77.5v-98v-98v-98v-98v-97v-98v-98v-98v-10t1 -10q5 -42 38.5 -71t76.5 -29h197.5h197.5h198h197h7.5h6.5q43 6 73 39t30 77v198v197.5v197.5v198v4.5v5.5v0 zM708 805q0 17 11.5 28t28.5 11h58.5h58.5q17 0 28.5 -11.5t11.5 -28.5v-58.5v-58.5q0 -17 -11.5 -28.5t-28.5 -11.5h-29.5h-29.5h-28.5h-29.5q-17 0 -28.5 11.5t-11.5 28.5v59v59v0zM511 647q41 0 77 -15.5t62.5 -42t42 -62.5t15.5 -76q0 -41 -15.5 -77t-42 -62.5 t-62.5 -42t-77 -15.5t-76.5 15.5t-62.5 42t-42.5 62.5t-15.5 76q0 41 15.5 77t42.5 62.5t62.5 42t76.5 15.5v0zM901 525q0 -54 0.5 -107t0.5 -106.5t0.5 -107t0.5 -106.5q0 -18 -11 -29.5t-29 -11.5h-176.5h-177h-177.5h-177q-18 0 -30 11.5t-12 29.5v106.5v106.5v106.5 v106.5q0 2 0 1.5t0 6.5h47h46q-15 -61 -8.5 -117.5t35.5 -109.5q21 -40 51 -72t70 -55q38 -22 81 -32.5t86.5 -9.5t85.5 14.5t79 38.5q42 28 71.5 66t47.5 85t20.5 93t-9.5 99h42h43q0 -7 0 -6.5t0 -0.5v0z" />
<glyph unicode="y" d="M512 963q-106 0 -199 -40.5t-162.5 -110t-110 -163t-40.5 -198.5q0 -106 40.5 -199.5t110 -163t162.5 -109.5t199 -40t199 40t162.5 109.5t110 163t40.5 199.5q0 105 -40.5 198.5t-110 163t-162.5 110t-199 40.5v0zM52 451q0 50 10 97t30 90l219 -602q-57 28 -105 70.5 t-82 96.5t-53 116.5t-19 131.5v0zM512 -10q-34 0 -66.5 5t-63.5 14l138 401l142 -387q0 -2 1 -3.5t2 -3.5q-36 -12 -74.5 -19t-78.5 -7v0zM575 666q21 1 37 3l16 2q19 2 17.5 20.5t-20.5 17.5l-43 -3t-80 -3q-33 0 -77 3l-44 3q-18 1 -19.5 -18t16.5 -20l15 -2t34 -3 l71 -196l-100 -302l-168 498q21 1 37 3l16 2q18 2 16.5 20.5t-19.5 17.5l-43.5 -3t-79.5 -3h-14h-16q31 47 72.5 85.5t91 65.5t105.5 42t116 15q45 0 87.5 -8.5t82 -24t75 -38t66.5 -50.5h-3.5h-2.5q-34 0 -55.5 -25t-21.5 -56q0 -29 13.5 -54.5t31.5 -53.5q13 -23 25.5 -54 t12.5 -73q0 -30 -10 -65.5t-25 -83.5l-46 -153l-167 494v0zM743 53l141 406q20 49 27.5 89.5t7.5 75.5q0 13 -1 24.5t-2 22.5q27 -49 41.5 -104.5t14.5 -115.5q0 -64 -16.5 -123t-46.5 -110t-72 -93t-94 -72v0z" />
<glyph unicode="z" d="M197 543v145q30 10 55.5 24t47.5 32q21 18 38.5 40t30.5 48t22 58.5t14 72.5h145v-259h243v-161h-243v-263q0 -44 2.5 -72.5t7.5 -41.5t13.5 -23t21.5 -17q17 -10 36.5 -15.5t41.5 -5.5q39 0 77.5 13t76.5 38v-162q-32 -15 -62 -26t-56 -17q-27 -6 -56 -9t-60 -3 q-35 0 -66 4t-58 13t-50 21.5t-42 29.5q-19 16 -32 33.5t-21 36.5q-7 18 -10.5 45t-3.5 62v359h-113v0z" />
<glyph unicode="{" d="M735 72h-201l-133 -133h-134v133h-245v712l67 179h913v-624l-267 -267v0zM913 384v490h-735v-646h201v-133l133 133h245l156 156v0zM668 695v-267h89v267h-89v0zM423 428h89v267h-89v-267v0z" />
<glyph unicode="}" d="M281 501q-58 0 -109.5 -22t-89.5 -60t-60 -89.5t-22 -109.5t22 -109t60 -89.5t89.5 -60.5t109.5 -22t109.5 22t89.5 60.5t60 89.5t22 109q0 60 0 57.5t0 22.5v0h-100v-10v-70q0 -37 -14.5 -70t-38.5 -57q-25 -25 -57.5 -39t-70.5 -14q-37 0 -70 14t-57 39q-25 24 -39 57 t-14 70q0 38 14 70.5t39 57.5q24 24 57 38.5t70 14.5h98h132h132.5h99.5q58 0 109.5 22t89.5 60t60 89t22 109t-22 109.5t-60 89.5t-89.5 60t-109.5 22t-109.5 -22t-89.5 -60t-60 -89.5t-22 -109.5v-69v-10h100v10v69q0 37 14.5 70t38.5 58q25 24 57.5 38t70.5 14 q37 0 70 -14t58 -39q24 -24 38 -57t14 -70q0 -38 -14 -70.5t-38 -57.5q-25 -24 -58 -38t-70 -14h-462v0z" />
<glyph unicode="&#xa3;" d="M909 198q-47 -20 -95.5 -35t-98 -25t-98 -14.5t-94.5 -4.5q-69 0 -136.5 9t-132 26.5t-124.5 42.5t-114 56q-9 6 -14 -1t3 -14q50 -45 107.5 -81t121.5 -61t133.5 -38t143.5 -13q52 0 108 8t110 24t104.5 39.5t92.5 54.5q14 11 6 22t-23 5v0zM1020 261q-9 12 -71 14.5 t-110 -31.5q-8 -5 -7 -10.5t9 -4.5q27 3 73.5 6t57.5 -10q11 -14 -4 -58.5t-25 -69.5q-3 -8 2 -10.5t12 3.5q45 38 58.5 99t4.5 72v0zM568 639q-44 -5 -96 -11t-92 -24q-47 -20 -77 -61t-30 -102q0 -78 43.5 -117t106.5 -39q53 0 88 15.5t77 57.5q13 -20 22.5 -33t34.5 -34 q5 -3 12 -2.5t11 4.5h1q15 13 38 33.5t38 32.5q7 5 6.5 12.5t-5.5 14.5q-14 19 -26 38.5t-12 54.5v155q0 50 -3.5 94.5t-40.5 78.5q-29 27 -71.5 38t-79.5 11q-71 0 -139 -32.5t-84 -120.5q-2 -9 3.5 -14t11.5 -7l97 -10q6 0 11 6t6 12q6 31 29 45.5t51 14.5q16 0 31.5 -6 t25.5 -20q10 -15 11 -34.5t1 -37.5v-13v0zM549 431q-12 -21 -30 -33t-39 -12q-29 0 -45 20t-16 52q0 64 47 82.5t102 18.5v-22q0 -29 -2 -54.5t-17 -51.5v0z" />
<glyph unicode="&#xa7;" d="M995 400l-7 12q-9 13 -18.5 25.5t-22.5 20.5q-11 8 -23.5 13.5t-23.5 11.5q33 16 56.5 39t33.5 52q8 24 6 44t-13 39v3q-13 22 -31 36.5t-45 21.5q-16 3 -34 3.5t-34 -0.5l-48 -10l16 36q11 35 7.5 68t-21.5 65l-5 7q-16 27 -40 44t-56 25q-34 9 -65.5 5.5t-61.5 -19.5 q-31 -16 -52 -41t-31 -57v-3l-1 -10l-6 10l-14 26q-18 27 -39.5 43.5t-48.5 24.5q-24 5 -44.5 2.5t-41.5 -12.5q-22 -15 -35.5 -36.5t-18.5 -52.5q-6 -31 -0.5 -61.5t21.5 -60.5l10 -15l-34 12q-33 7 -63.5 3t-61.5 -20q-31 -17 -51.5 -40t-33.5 -54q-12 -31 -10.5 -60 t16.5 -56q7 -12 16 -21.5t17 -15.5q13 -13 29.5 -21t35.5 -11l10 -3l-21 -19q-15 -13 -24.5 -28.5t-14.5 -31.5q-6 -20 -3.5 -39t13.5 -38q5 -9 11 -16t15 -13q8 -7 19 -12t24 -7q24 -5 49 -4.5t52 9.5l-26 -43l-7 -19q-11 -35 -8 -66t20 -63q7 -12 15.5 -22.5t17.5 -20.5 q13 -12 29 -20t36 -13q32 -9 64.5 -7t63.5 18q31 17 50.5 42t29.5 58l1 9q21 -23 41 -38t41 -20q22 -7 43.5 -5t40.5 15q18 11 31 28.5t20 40.5q5 24 5 48.5t-5 51.5q10 -8 21.5 -13.5t24.5 -8.5q34 -11 65.5 -9t61.5 18q29 16 48.5 41.5t29.5 59.5q8 32 5.5 63.5 t-18.5 61.5v0zM785 642l18 7q19 8 38 10.5t38 0.5t31.5 -10t19.5 -21l6 -19l-3 -15q-8 -19 -24.5 -34.5t-43.5 -27.5q-11 -5 -23 -8t-25 -5l-177 -21l-3 10l-3 4l6 7l145 122v0zM540 823q5 22 19.5 38.5t33.5 26.5q20 11 41 13t42 -5q22 -6 38.5 -18t26.5 -30q5 -11 8 -23.5 t3 -27.5l-4 -31q-4 -12 -9.5 -23t-12.5 -21l-130 -158q-9 7 -20 13t-22 11l-14 163l-1 58l1 14v0zM293 819q1 20 8.5 33t20.5 21q7 5 16 5t17 -4q20 -5 36 -20t29 -42q6 -11 10.5 -22t7.5 -24l28 -171l-21 -7l-129 140l-7 15q-9 19 -13.5 38t-2.5 38v0zM81 513 q-9 16 -9 32.5t6 32.5q8 21 22 36.5t34 24.5q20 10 40 13.5t41 -2.5l39 -16l127 -92q-8 -11 -14 -22t-9 -21l-208 -26l-14 3q-20 3 -33 12t-22 25v0zM482 87l-1 -14q-8 -20 -21 -35.5t-33 -23.5q-19 -11 -39 -13.5t-40 2.5q-22 6 -37.5 18.5t-24.5 29.5q-5 11 -9 23.5 t-4 25.5l7 33q2 11 7.5 21.5t14.5 19.5l121 144l22 -10t23 -6q2 -37 5.5 -76t8.5 -81v-58v0zM435 376q-14 13 -21.5 30.5t-7.5 37.5q0 19 7.5 35.5t21.5 32.5q13 12 30 19t38 7q19 0 36.5 -7t29.5 -19q15 -16 22 -32.5t7 -35.5q0 -20 -7 -37.5t-22 -30.5 q-14 -14 -30.5 -21.5t-35.5 -7.5q-21 0 -38 7.5t-30 21.5v0zM702 123q-2 -19 -9 -32.5t-20 -19.5q-8 -5 -16.5 -6t-16.5 1q-21 5 -37 21t-28 42l-18 48l-21 125l24 9l19 10l61 -62l37 -46l7 -15q10 -18 15 -36t3 -39v0zM950 292q-5 -21 -18 -37t-31 -25q-20 -11 -39.5 -13 t-41.5 6q-13 3 -22 8.5t-17 14.5l-151 126l10 21l4 18l163 14l58 1l14 -1q17 -5 31 -15.5t23 -26.5q11 -12 16 -28t5 -34l-4 -29v0z" />
<glyph unicode="&#xa8;" d="M288 760q71 1 104.5 35t28.5 72q-3 31 -34 56t-89 25q-48 0 -77.5 -29.5t-34.5 -64.5q-5 -36 19 -65.5t83 -28.5v0zM759 772q68 4 99 32.5t31 62.5q1 38 -33.5 69t-95.5 26q-49 -4 -76.5 -32.5t-32.5 -62.5q-5 -37 21.5 -68t86.5 -27v0zM817 571q-85 -8 -139 -13.5 t-116 -8.5t-151 -6t-245 -6q-65 -1 -89 -94.5t1.5 -205.5t104.5 -205t219 -93q133 0 266.5 104t212.5 226t76.5 219t-140.5 83v0zM411 45q-122 0 -180 60.5t-75 133t-4 133.5t33 62q142 5 236 11t160 10t114.5 7t98.5 3q52 0 35 -65.5t-77.5 -144.5t-152 -144.5 t-188.5 -65.5v0z" />
<glyph unicode="&#xb0;" d="M927 748q-80 92 -174.5 117.5t-175.5 20.5t-135 -24.5l-54 -19.5q-14 -7 -23.5 -12.5t-16.5 -11.5q-7 -5 -13 -11t-9 -12q-11 -23 -18.5 -45.5t-13.5 -42.5q-29 -38 -48.5 -82.5t-27.5 -93.5q-29 -41 -46 -87.5t-20 -96.5q-69 18 -110.5 36l-41.5 18q39 -23 77 -40.5 t74 -30.5q0 -24 3 -48t10 -48q16 -52 45.5 -94.5t69.5 -74.5q-23 27 -40.5 58t-28.5 66q-9 32 -11.5 63.5t0.5 61.5q9 -2 17.5 -4.5t16.5 -4.5q18 -52 48.5 -97.5t72 -80.5t91.5 -58.5t106 -32.5q41 -18 82 -21.5t81 8.5q19 7 36 16.5t32 22.5q5 3 9 7t8 9q39 20 72 48 t59.5 62t45 73.5t28.5 83.5q0 -4 -0.5 -6l-0.5 -2l10.5 39t10.5 99.5t-19 133t-78 139.5v0zM288 682q-7 -28 -10 -50t-3 -38q-13 -11 -23.5 -22.5t-20.5 -24.5q8 37 22.5 71t34.5 64v0zM274 495q2 -37 9.5 -75.5t19.5 -77.5q2 -5 4 -11t4 -11q-19 1 -38 3.5t-37 5.5 q-5 19 -8.5 38.5t-4.5 39.5q9 24 22 46t29 42v0zM202 336q2 13 5.5 25.5t7.5 25.5q2 -14 4.5 -28t5.5 -28q-6 1 -11.5 2.5t-11.5 2.5v0zM244 303q21 -5 41 -8.5t39 -6.5q35 -80 86 -140.5t110 -94.5q-49 11 -91.5 34.5t-78.5 56t-63 72.5t-43 87v0zM810 95q-2 3 -12 -1 l-10 -4q-10 -6 -20.5 -11t-21.5 -8q-47 -15 -96.5 -6.5t-97 37t-90 74.5t-75.5 107q83 -4 151 7t117 25.5t76 27.5l27 13l17.5 6.5t12.5 44.5q-6 38 -25.5 25l-19.5 -13q-45 -30 -92.5 -50t-95 -32t-94 -16.5t-91.5 -3.5q-7 16 -13.5 32.5t-12.5 33.5q-13 40 -20 79.5 t-9 77.5q33 30 73.5 53t86.5 37q43 13 85.5 16t83.5 -3l4.5 -0.5t2.5 19.5q-1 20 -11.5 25.5l-10.5 5.5q-46 9 -95.5 7t-98.5 -16q-32 -10 -61 -24t-55 -31q3 23 8 44.5t12 41.5l10.5 16.5t42.5 33.5q23 9 65.5 22.5t93.5 22.5t104.5 8.5t97.5 -19.5q76 -32 123.5 -83 t74.5 -107.5t38 -111t14 -94.5q-4 -49 -19.5 -94.5t-40.5 -85t-58.5 -72t-74.5 -56.5v0z" />
<glyph unicode="&#xb1;" d="M766 465q-11 3 -17 7.5t0 18.5q12 31 12.5 57t-12.5 45q-25 36 -87.5 35t-140.5 -34l-15.5 -4t-9.5 16q12 39 10 70t-21 49q-21 22 -58 22t-82.5 -17.5t-96 -52t-99.5 -83.5q-36 -36 -64.5 -73t-48 -73.5t-30 -72t-10.5 -68.5q0 -64 37.5 -114.5t98 -85.5t137.5 -54 t157 -19q104 0 189.5 27.5t146.5 70t94.5 93.5t33.5 100q0 58 -40.5 92t-83.5 48v0zM426 95q-63 -6 -120.5 4.5t-102 33.5t-72 57.5t-31.5 75.5q-5 42 15.5 81t59.5 70.5t93.5 53t118.5 27.5q63 7 120.5 -3.5t102 -33.5t72 -57.5t32.5 -76.5q4 -42 -16.5 -81t-59.5 -70.5 t-93.5 -52.5t-118.5 -28v0zM950 775q-50 55 -119.5 76.5t-138.5 6.5v0q-15 -3 -24 -17t-6 -29q4 -16 17.5 -25t29.5 -5q49 10 98 -5t85 -55t46 -90.5t-5 -97.5v0q-5 -16 2 -30.5t23 -19.5q15 -5 29.5 2.5t19.5 22.5v0.5v0.5q22 66 8 137.5t-65 127.5v0zM832 530 q13 -4 25.5 2.5t16.5 19.5q11 33 4.5 67.5t-31.5 61.5v0q-25 28 -58.5 38t-67.5 3q-13 -3 -21 -15t-5 -25q3 -14 15 -21.5t25 -4.5v0q17 4 33.5 -1.5t28.5 -18.5t15 -30t-2 -33v0q-4 -13 2.5 -25.5t19.5 -17.5v0zM443 412q-60 16 -120 -10.5t-86 -79.5q-27 -54 -4 -106.5 t84 -72.5q63 -20 127.5 7t90.5 86q26 57 -1.5 108.5t-90.5 67.5v0zM382 227q-13 -19 -35.5 -26.5t-42.5 1.5t-25 28.5t7 39.5q12 19 34.5 26t42.5 -1t25.5 -28t-6.5 -40v0zM436 297q-5 -8 -13.5 -11t-15.5 0q-8 3 -10 10.5t2 14.5q4 8 12.5 11t16.5 0q7 -3 9.5 -10.5 t-1.5 -14.5v0z" />
<glyph unicode="&#xbf;" d="M656 636q61 -8 99 42.5t46 100.5t-24.5 98.5t-75.5 58.5q-44 10 -88.5 -42.5t-49.5 -98.5q-6 -56 12.5 -103.5t80.5 -55.5v0zM184 423q84 18 90 91t3 95q-4 34 -40 78t-90 39q-67 -6 -85 -72l-18 -66q-9 -45 24 -114t116 -51v0zM391 646q46 0 78.5 46.5t32.5 111.5 q0 66 -32.5 112.5t-78.5 46.5t-78.5 -46.5t-32.5 -112.5q0 -65 32.5 -111.5t78.5 -46.5v0zM302 191q-2 -7 -5 -22.5t1 -31.5q10 -35 31.5 -42l21.5 -7h59v143h-63q-21 -6 -31.5 -19t-13.5 -21v0zM982 524q0 24 -25.5 76t-99.5 52q-73 0 -92 -53.5t-19 -101.5q0 -46 18 -95.5 t109 -47.5t100 74t9 96v0zM857 245l-21 17t-51.5 45.5t-65.5 65.5t-63 77q-38 58 -81.5 79t-84 16t-74.5 -28.5t-51 -53.5q-36 -60 -80.5 -97t-52.5 -47q-4 -5 -28 -21.5t-48.5 -45.5t-41 -70t-4.5 -94q24 -106 84 -122l60 -16l52.5 -1.5t124.5 14.5q71 16 124 5.5l53 -10.5 l36 -9.5t83.5 -10t94.5 17t70 71.5q45 108 5 163l-40 55v0zM476 31h-144q-47 9 -68 33t-23 30q-2 5 -10 30.5t-1 69.5q20 65 62 79l42 14h77v95l65 -1v-350v0zM746 32h-167q-48 13 -57.5 38l-9.5 25v184l67 1v-166q3 -13 14.5 -17l11.5 -4h69v186h72v-247v0z" />
<glyph unicode="&#x20ac;" d="M153 236q0 31 7 56t21 42q11 16 29.5 27t44.5 18q-8 20 -12 35t-4 25q0 16 9 33.5t26 36.5q19 17 36 26t33 9q9 0 19 -2.5t22 -6.5q-25 69 -42 121t-28 88q-12 40 -18 69t-6 46q0 24 6 43t18 32q13 15 29.5 22t37.5 7q19 0 38.5 -18.5t41.5 -55.5t45.5 -93t48.5 -130 l17 -49l6 16t6 17q25 74 49 129t46.5 91.5t44 54.5t41.5 18t36 -6.5t27 -20.5q12 -13 18 -30.5t6 -39.5q0 -14 -6 -42.5t-18 -70.5q-10 -37 -26.5 -87t-39.5 -114q29 -7 49.5 -20.5t32.5 -33.5q14 -22 20.5 -55.5t6.5 -78.5q0 -89 -26.5 -162t-79.5 -130q-54 -57 -123 -85 t-152 -28q-33 0 -65 6t-63 18q-29 10 -56 26.5t-51 39.5q-26 24 -45 49t-31 50q-13 27 -19.5 54t-6.5 54v0zM218 241q0 -13 3.5 -27.5t10.5 -31.5q6 -17 16 -33.5t23 -34.5q21 -26 45 -46.5t52 -34.5q29 -14 61.5 -21t68.5 -7q65 0 119.5 24.5t98.5 72.5q43 48 65 109 t22 135q0 23 -1.5 41t-4.5 30q-2 11 -7 20t-12 15q-14 11 -40.5 21t-65.5 19q-40 9 -82 13.5t-87 4.5q-11 0 -18 -1.5t-10 -4.5q-4 -2 -5.5 -7t-1.5 -13q0 -21 11.5 -35.5t34.5 -23.5q25 -10 66.5 -15.5t99.5 -5.5h28q8 0 13.5 -2.5t9.5 -8.5q4 -4 6.5 -11.5t4.5 -19.5 q-9 -8 -22.5 -16t-32.5 -15q-18 -6 -31.5 -12.5t-22.5 -13.5q-20 -15 -36 -32t-28 -37q-11 -20 -17 -38.5t-6 -36.5q0 -10 2.5 -23t7.5 -28q6 -16 8.5 -27t2.5 -16v-6l-4 -15q-22 1 -38 11.5t-26 29.5q-9 16 -13.5 36.5t-5.5 45.5q-2 0 -5 -0.5t-7 -0.5h-11q0 -2 0.5 -5 t0.5 -7q0 -15 -6 -27.5t-17 -23.5q-12 -10 -25.5 -15.5t-29.5 -5.5q-23 0 -47 11.5t-48 33.5q-24 23 -36 46t-12 45q0 4 0.5 8t2.5 8q0 3 4 8.5t12 13.5q13 -16 21.5 -26.5t12.5 -16.5q21 -30 40 -45t36 -15q5 0 9 1.5t8 4.5t5.5 5.5t1.5 4.5q0 4 -3.5 11.5t-9.5 18.5 q-4 7 -13 20.5t-24 32.5q-14 18 -25 30.5t-20 19.5q-7 7 -12.5 10.5t-9.5 3.5q-9 0 -18.5 -5.5t-18.5 -16.5t-13.5 -25t-4.5 -30v0zM308 432q0 -6 4 -17.5t12 -27.5q7 -13 18.5 -30t26.5 -38q16 -20 30 -35.5t27 -26.5q12 -10 21 -15t15 -5q3 0 6.5 1.5t7.5 5.5q3 4 5 8t2 8 q0 6 -4.5 20.5t-13.5 37.5q-11 26 -22.5 49t-23.5 43q-11 18 -21 30.5t-19 19.5q-8 7 -15.5 11t-15.5 4q-5 0 -11.5 -4t-13.5 -11q-7 -8 -11 -14.5t-4 -13.5v0zM353 866q0 -17 6 -44t18 -63t28.5 -83.5t38.5 -107.5q5 3 12 4.5t16 1.5h2h4q3 -1 5.5 -1h5.5q2 0 8.5 -0.5 t17.5 -1.5l-69 201q-14 40 -25 66t-19 38q-7 11 -13.5 16t-13.5 5q-4 0 -8 -2t-7 -6t-5 -10t-2 -13v0zM520 354q5 -11 9.5 -23.5t9.5 -26.5q10 12 20 21.5t20 16.5q-2 1 -6 1.5t-9 1.5q-5 0 -8.5 1t-6.5 1q-10 2 -17 4t-12 3v0zM625 559l68 -12q22 62 39.5 112t29.5 88 q13 40 19 64.5t6 31.5q0 8 -1.5 14.5t-5.5 10.5q-2 4 -5.5 5.5t-9.5 1.5q-7 0 -15 -6.5t-16 -20.5q-10 -14 -20.5 -39.5t-22.5 -61.5l-66 -188v0z" />
</font>
</defs>
</svg>
